Subcategories

ADSR Sounds - Melbourne Bounce Drop using NI Massive - Start To Finish [repost]

Posted By: ParRus
ADSR Sounds - Melbourne Bounce Drop using NI Massive - Start To Finish [repost]

Melbourne Bounce Drop using NI Massive - Start To Finish
WEBRip | English | MP4 | 2006 x 1114 | AVC ~1194 kbps | 30 fps
AAC | 243 Kbps | 44.1 KHz | 2 channels | 01:42:40 | 1.35 GB
Genre: Video Tutorial / Sound Processing

Welcome to ADSR’s new ‘Start to Finish’ Series – in-depth video courses that step you through creating the hottest EDM genres in detail, from start to finish.Hosted by lead tutor Echo Sound Works, this edition of this unique series gets you up to speed on how to create that distinctive Melbourne Bounce Sound using Native Instruments Massive .With over 2 hours of exclusive video content, you will learn how to make 7 sounds in Massive, tune kick drums, build and layer drum samples, write off beat bass lines, compose your actual drop and as an added bonus, learn how to chop up vocals to get that Melbourne Bounce sound popularized by Deorro.
Melbourne Bounce - INTRO.
Melbourne Bounce - PT1 Drums.
Melbourne Bounce - PT2 OFF BEAT BASS.
Melbourne Bounce - PT3 LEAD DROP.
Melbourne Bounce - PT4 DROP LEAD FX.
Melbourne Bounce - PT5 MAKING THE INTRO.
Melbourne Bounce - PT6 VOCAL CHOPS.
Melbourne Bounce - PT7 FINAL TOUCHES.

also You can look my other last: Sound Processing-posts

General
Complete name :STF Melbourne Bounce - PT2 OFF BEAT BASS.mp4
Format : MPEG-4
Format profile : Base Media / Version 2
Codec ID : mp42 (mp42/isom)
File size : 279 MiB
Duration : 27mn 3s
Overall bit rate mode : Variable
Overall bit rate : 1 441 Kbps
Encoded date : UTC 2015-01-08 03:42:27
Tagged date : UTC 2015-01-08 03:54:00

Video
ID : 1
Format : AVC
Format/Info : Advanced Video Codec
Format profile : Main@L5
Format settings, CABAC : Yes
Format settings, ReFrames : 5 frames
Codec ID : avc1
Codec ID/Info : Advanced Video Coding
Duration : 27mn 3s
Bit rate : 1 194 Kbps
Width : 2 006 pixels
Height : 1 114 pixels
Display aspect ratio : 16:9
Frame rate mode : Constant
Frame rate : 30.000 fps
Color space : YUV
Chroma subsampling : 4:2:0
Bit depth : 8 bits
Scan type : Progressive
Bits/(Pixel*Frame) : 0.018
Stream size : 231 MiB (83%)
Encoded date : UTC 2015-01-08 03:42:27
Tagged date : UTC 2015-01-08 03:54:00
Color primaries : BT.709
Transfer characteristics : BT.709
Matrix coefficients : BT.709

Audio
ID : 2
Format : AAC
Format/Info : Advanced Audio Codec
Format profile : LC
Codec ID : 40
Duration : 27mn 3s
Bit rate mode : Variable
Bit rate : 243 Kbps
Maximum bit rate : 467 Kbps
Channel(s) : 2 channels
Channel positions : Front: L R
Sampling rate : 44.1 KHz
Frame rate : 43.066 fps (1024 spf)
Compression mode : Lossy
Stream size : 47.0 MiB (17%)
Encoded date : UTC 2015-01-08 03:42:27
Tagged date : UTC 2015-01-08 03:43:16

Screenshots

ADSR Sounds - Melbourne Bounce Drop using NI Massive - Start To Finish [repost]

ADSR Sounds - Melbourne Bounce Drop using NI Massive - Start To Finish [repost]

ADSR Sounds - Melbourne Bounce Drop using NI Massive - Start To Finish [repost]

Exclusive eLearning, and eDucational Videos Check My ParRus-blogadd to bookmarks

ADSR Sounds - Melbourne Bounce Drop using NI Massive - Start To Finish [repost]