Subcategories

Modern Neuromuscular Techniques

Posted By: ParRus
Modern Neuromuscular Techniques

Modern Neuromuscular Techniques
DVDRip | MOV + PDF Guidebook | English | 320 x 240 | SVQ1 ~1944 kbps | 25 fps
MPEG Audio ~352 Kbps | 44.1 KHz | 1 channel | 00:23:20 | 319 MB
Genre: eLearning Video / Health, Rehabilitation, Massage

Written in easy-to-understand language that's ideal for all bodywork therapists and acupressure practitioners, this popular textbook illustrates how to make precise, systematic evaluations of soft tissue problems. It provides up-to-date information related to a specific range of therapeutic techniques. A new accompanying CD-ROM, complete with video clips that demonstrate how to perform the methods described in the text, offers visual cues for unique, clinically relevant instruction.
Clear descriptions of techniques show the reader how to rapidly and accurately identify and assess local soft tissue dysfunction.
A clear set of treatment options for these dysfunctions clarify which techniques may be used safely by all bodywork practitioners and therapists.
Both European and North American versions of NMT are presented and described.
An analysis and comparison of the major reflex systems used in bodywork provides a link between bodywork and acupressure approaches.
The author is a highly respected, internationally known teacher, practitioner and author, with contributions from two of the leading practitioners in the U.S.

About the Author
Leon Chaitow ND DO is an internationally known and respected osteopathic and naturopathic practitioner and teacher of soft tissue manipulation methods of treatment. He is author of over 60 books, including a series on Advanced Soft Tissue Manipulation (Muscle Energy Techniques, Positional Release Techniques, Modern Neuromuscular Techniques) and also Palpation Skills; Cranial
Manipulation: Theory and Practice; Fibromyalgia Syndrome: A Practitioner’s Guide to Treatment, and many more. He is editor of the peer reviewed Journal of Bodywork and Movement Therapies, that offers a multidisciplinary perspective on physical methods of patient care. Leon Chaitow was for many years senior lecturer on the Therapeutic Bodywork degree courses which he helped to design at the School of Integrated Health, University of Westminster, London, where is he now an Honorary Fellow. He continues to teach and practice part-time in London, when not in Corfu, Greece where he focuses on his writing.

Includes PDF workbook: ISBN: 0443071586 (279 pages)

also You can watch my other last: Rehabilitation-posts

General
Complete name : page140_a.mov
Format : QuickTime
Format/Info : Original Apple specifications
File size : 6.00 MiB
Duration : 25s 880ms
Overall bit rate : 1 944 Kbps
Encoded date : UTC 2002-11-20 09:17:44
Tagged date : UTC 2002-11-20 09:17:48
Writing library : Apple QuickTime

Video #1
ID : 1
Format : Sorenson 1
Codec ID : SVQ1
Codec ID/Info : Sorenson Media Video 1 (Apple QuickTime 3)
Duration : 25s 880ms
Source duration : 21s 760ms
Width : 320 pixels
Height : 240 pixels
Display aspect ratio : 4:3
Frame rate mode : Constant
Frame rate : 25.000 fps
Source stream size : 5.31 MiB (89%)
Language : English
Encoded date : UTC 2002-11-08 10:15:22
Tagged date : UTC 2002-11-20 09:17:48

Video #2
ID : 3
Format : qdrw
Codec ID : qdrw
Duration : 4s 120ms
Source duration : 40ms
Bit rate : 2 692 Kbps
Width : 320 pixels
Height : 240 pixels
Display aspect ratio : 4:3
Frame rate mode : Constant
Frame rate : 25.000 fps
Bits/(Pixel*Frame) : 1.402
Stream size : 1.32 MiB (22%)
Source stream size : 13.1 KiB (0%)
Language : English
Encoded date : UTC 2002-11-20 09:16:57
Tagged date : UTC 2002-11-20 09:17:48

Audio
ID : 2
Format : MPEG Audio
Codec ID : 55
Codec ID/Hint : MP3
Duration : 25s 880ms
Source duration : 21s 760ms
Bit rate mode : Constant
Bit rate : 352 Kbps
Nominal bit rate : 256 Kbps
Channel(s) : 1 channel
Sampling rate : 44.1 KHz
Compression mode : Lossy
Stream size : 1.09 MiB (18%)
Source stream size : 937 KiB (15%)
Language : English
Encoded date : UTC 2002-11-08 10:19:23
Tagged date : UTC 2002-11-20 09:17:48

Screenshots

Modern Neuromuscular Techniques

Modern Neuromuscular Techniques

Modern Neuromuscular Techniques

Modern Neuromuscular Techniques

Modern Neuromuscular Techniques

Exclusive eLearning Videos ParRus-blogadd to bookmarks

Modern Neuromuscular Techniques