Tags
Language
Tags

Udemy - React Front To Back 2019

Posted By: ParRus
Udemy - React Front To Back 2019

Udemy - React Front To Back 2019
WEBRip | English | MP4 | 1280 x 720 | AVC ~702 Kbps | 30 fps
AAC | 128 Kbps | 44.1 KHz | 2 channels | ~14 hours | 5.81 GB
Genre: Video Tutorial

Lean Modern React 16.8+ Including Hooks, Context API, Full Stack MERN & Redux By Building Real Life Projects
What you'll learn
Learn Modern React 16.8 By Building 3 Projects
Flux Pattern Using Context & useContext/useReducer Hooks
Learn Redux From Scratch
Full Stack Development with MERN (MongoDB, Express, React, Node)
Suitable For Both Beginners & Intermediate React Developers

In this course you will learn to master React 16.8+ concepts including how to create a Flux pattern using the Context API with the useContext and useReducer hooks. We will also build a full stack MERN application with a custom Express backend API that uses JWT (JSON Web Token) for authentication. In addition, we will also create a project that uses Redux.

Here are some of the things you will learn in this course:

React Fundamentals (Components, props, state, etc)

React Hooks (useState, useEffect, useContext, useReducer, useRef) in real projects

Context API & App Level State

MERN - MongoDB, Express React, Node

Build a Custom API With JWT Authentication

Redux - Reducers, Actions, etc

Basic Animation

Much More…

Who this course is for:
Developers looking to learn Modern React 16.8+ with hooks & context, MERN & Redux

also You can find my other useful: programming-posts

General
Complete name : 9 Components Props PropTypes.mp4
Format : MPEG-4
Format profile : Base Media
Codec ID : isom (isom/iso2/avc1/mp41)
File size : 64.7 MiB
Duration : 10 min 47 s
Overall bit rate : 838 kb/s
Writing application : Lavf58.12.100
IsTruncated : Yes

Video
ID : 1
Format : AVC
Format/Info : Advanced Video Codec
Format profile : Main@L3.1
Format settings : CABAC / 4 Ref Frames
Format settings, CABAC : Yes
Format settings, RefFrames : 4 frames
Format settings, GOP : M=4, N=60
Codec ID : avc1
Codec ID/Info : Advanced Video Coding
Duration : 10 min 47 s
Bit rate : 702 kb/s
Nominal bit rate : 3 000 kb/s
Width : 1 280 pixels
Height : 720 pixels
Display aspect ratio : 16:9
Frame rate mode : Constant
Frame rate : 30.000 FPS
Color space : YUV
Chroma subsampling : 4:2:0
Bit depth : 8 bits
Scan type : Progressive
Bits/(Pixel*Frame) : 0.025
Stream size : 54.2 MiB (84%)
Writing library : x264 core 148
Encoding settings : cabac=1 / ref=3 / deblock=1:-1:-1 / analyse=0x1:0x111 / me=umh / subme=6 / psy=1 / psy_rd=1.00:0.15 / mixed_ref=1 / me_range=16 / chroma_me=1 / trellis=1 / 8x8dct=0 / cqm=0 / deadzone=21,11 / fast_pskip=1 / chroma_qp_offset=-3 / threads=22 / lookahead_threads=3 / sliced_threads=0 / nr=0 / decimate=1 / interlaced=0 / bluray_compat=0 / constrained_intra=0 / bframes=3 / b_pyramid=2 / b_adapt=1 / b_bias=0 / direct=1 / weightb=1 / open_gop=0 / weightp=2 / keyint=60 / keyint_min=6 / scenecut=0 / intra_refresh=0 / rc_lookahead=60 / rc=cbr / mbtree=1 / bitrate=3000 / ratetol=1.0 / qcomp=0.60 / qpmin=0 / qpmax=69 / qpstep=4 / vbv_maxrate=3000 / vbv_bufsize=6000 / nal_hrd=none / filler=0 / ip_ratio=1.40 / aq=1:1.00

Audio
ID : 2
Format : AAC
Format/Info : Advanced Audio Codec
Format profile : LC
Codec ID : mp4a-40-2
Duration : 10 min 47 s
Bit rate mode : Constant
Bit rate : 128 kb/s
Channel(s) : 2 channels
Channel positions : Front: L R
Sampling rate : 44.1 kHz
Frame rate : 43.066 FPS (1024 SPF)
Compression mode : Lossy
Stream size : 9.88 MiB (15%)
Default : Yes
Alternate group : 1

Screenshots

Udemy - React Front To Back 2019

Udemy - React Front To Back 2019

Udemy - React Front To Back 2019

Udemy - React Front To Back 2019

Udemy - React Front To Back 2019

✅ Exclusive eLearning Videos ParRus-blogadd to bookmarks

Feel free to contact me PM
when links are dead or want any repost

Udemy - React Front To Back 2019