Subcategories

The Muscle and Bone Palpation Manual, 2 DVD-Set [repost]

Posted By: ParRus
The Muscle and Bone Palpation Manual, 2 DVD-Set [repost]

The Muscle and Bone Palpation Manual
With Trigger Points, Referral Patterns, and Stretching
2DVDRip | English | AVI | 720 x 480 | DX50 ~493 kbps | 29.970 fps
MP3 | 160 Kbps | 44.1 KHz | 2 channels | 05:10:20 | + PDF guide | 1.77 GB
Genre: eLearning Video / Medicine, Massage, Rehabilitation

With more than 1,000 vibrant, full-color illustrations and over 4 hours of detailed video demonstrations, THE MUSCLE AND BONE PALPATION MANUAL is the most visually engaging way to help you master and successfully apply palpation techniques in massage therapy. This innovative text uses unique, richly detailed photographic illustrations of muscles as they appear under the skin to give you a thorough understanding of effective palpation. This comprehensive guide provides unparalleled preparation for professional success.
Full-color musculoskeletal overlays depict muscles and bones exactly as they appear when palpated to help you locate tissues and landmarks with confidence.
Comprehensive palpation coverage helps you easily identify muscle names, attachments, actions, palpation steps, and more.
Video demonstrations on two companion DVDs demonstrate and reinforce correct muscle palpation.
Joseph Muscolino's popular, concise writing style makes the science of palpation clear and accessible, encouraging critical thinking skills.
Trigger points and referral patterns included for each muscle provide convenient access to guidelines for additional client assessment and treatment.
Massage-specific treatment options guide you from palpation and assessment to practical treatment application.
Stretching protocols and illustrations broaden your treatment capabilities.
Comprehensive Body Mechanics chapter details 10 guidelines to help maximize efficiency during practice.
A massage stroke atlas with information on draping techniques, massage strokes, and fundamental characteristics of touch helps you efficiently treat clients.
Detailed explanations and full color drawings for bone and bony landmark palpation provide a comprehensive resource for bone palpation.

Presenting more than 4 hours of detailed video demonstrations, the Companion DVDs reinforce your understanding of proper palpation techniques and help you apply the skills you've learned to practice! Icons throughout the book direct you to corresponding DVD content including:

* DVD 1: Step-by-step instructional videos that guide you through muscle palpation techniques performed by Joseph E. Muscolino in rich vivid detail.
* DVD 2: Expert insight and perspectives in uniques video clips from such industry leaders as Tom Myers, Leon Chaitow, Whitney Lowe, Bob King, Gil Hedley, and more.

Tour #1: Palpation of the Muscles of the Shoulder Girdle
Tour #2: Palpation of the Neck Muscles
Tour #3: Palpation of the Muscles of the Head
Tour #4: Palpation of the Muscles of the Arm
Tour #5: Palpation of the Muscles of the Forearm
Tour #6: Palpation of the Intrinsic Muscles of the Hand
Tour #7: Palpation of the Trunk Muscles
Tour #8: Palpation of the Pelvic Muscles
Tour #9: Palpation of the Thigh Muscles
Tour #10: Palpation of the Leg Muscles
Tour #11: Palpation of the Intrinsic Muscles of the Foot

NOTE: DVD 1 corresponds with only the book chapters based on palpation which are Chapters 10-20. There is no video to correspond with Chapter 15: Palpation of the Intrinsic Muscles of the Hand or Chapter 20: Palpation of the Intrinsic Muscles of the Foot.

General
Complete name : Chapter 17- Palpation of the Pelvic Muscles.avi
Format : AVI
Format/Info : Audio Video Interleave
File size : 43.7 MiB
Duration : 9mn 16s
Overall bit rate : 660 Kbps
Writing library : MPlayer

Video
ID : 0
Format : MPEG-4 Visual
Format profile : Simple@L1
Format settings, BVOP : No
Format settings, QPel : No
Format settings, GMC : No warppoints
Format settings, Matrix : Default (H.263)
Codec ID : DX50
Codec ID/Hint : DivX 5
Duration : 9mn 16s
Bit rate : 493 Kbps
Width : 720 pixels
Height : 480 pixels
Display aspect ratio : 3:2
Frame rate : 29.970 fps
Standard : NTSC
Color space : YUV
Chroma subsampling : 4:2:0
Bit depth : 8 bits
Scan type : Interlaced
Scan order : Top Field First
Compression mode : Lossy
Bits/(Pixel*Frame) : 0.048
Stream size : 32.7 MiB (75%)
Writing library : Lavc52.0.0

Audio
ID : 1
Format : MPEG Audio
Format version : Version 1
Format profile : Layer 3
Mode : Joint stereo
Mode extension : MS Stereo
Codec ID : 55
Codec ID/Hint : MP3
Duration : 9mn 15s
Bit rate mode : Constant
Bit rate : 160 Kbps
Channel(s) : 2 channels
Sampling rate : 44.1 KHz
Compression mode : Lossy
Stream size : 10.6 MiB (24%)
Alignment : Split accross interleaves
Interleave, duration : 499 ms (14.96 video frames)
Interleave, preload duration : 500 ms
Writing library : LAME3.97
Screenshots

The Muscle and Bone Palpation Manual, 2 DVD-Set [repost]

The Muscle and Bone Palpation Manual, 2 DVD-Set [repost]

The Muscle and Bone Palpation Manual, 2 DVD-Set [repost]

The Muscle and Bone Palpation Manual, 2 DVD-Set [repost]

The Muscle and Bone Palpation Manual, 2 DVD-Set [repost]

Exclusive eLearning Videos ParRus-blogadd to bookmarks

The Muscle and Bone Palpation Manual, 2 DVD-Set [repost]