Bartke & Hutchinson - Pixel Mastery Live Los Angeles (2017)

Posted By: ParRus
Bartke & Hutchinson - Pixel Mastery Live Los Angeles (2017)

Bartke & Hutchinson - Pixel Mastery Live Los Angeles (2017)
WEBRip | English | AVC + PDF Guides | 1280 x 720 | AVC ~1414 Kbps | 30 fps
AAC | 110 Kbps | 44.1 KHz | 2 channels | 28:31:43 | 19.2 GB
Genre: eLearning Video / Business, Net: Advertising, Web Traffic

Discover the secrets behind facebook’s traffic, pixels, optimization & scaling of your ecommerce marketing campaigns to 7 figures & beyond! Do you run traffic, Facebook traffic or wish too? Do you sell products, services or run an ecommerce store? If you answered yes, then this event workshop is right for you. Facebook traffic is one of the easiest to learn and allows you target your ideal customer with ease. Thomas and I will be sharing everything we’ve done to leverage the power of Facebook traffic, the pixel, funnels and how this has propelled our businesses to become 7 figure plus businesses.
Our students have generated over 100m in revenue since attending…

The results speak for themselves…And we’re not showing these screenshots to brag, far from it. It’s to show you, what is really possible when you implement our proven optimization and scaling methodology, whilst understanding the most effective way to run facebook advertising.

A SIMPLE 3-STEP SYSTEM…BUILD, SCALE & ACCELERATE!

Here’s what you’ll learn:

You''ll discover our system and why it works, along with how to implement it within your business quickly!

Those students that apply it quickly see results within hours.

Our system covers Facebook Advertising and how to utilise it to build, optimise and scale campaigns quickly.

We then show you how to leverage the traffic further and how to increase the conversion by using various strategies and funnels.

We take things even further by showing you how to accelerate your business growth by using system to grow you backend profits!

We''ll be sharing how to effectively market on Facebook, no matter what you sell. We’ll cover every single aspect of how to harness the power of Facebook marketing.

We''ll show you which types of campaigns to use, the objectives, optimisation, pixels, audiences, how to understand your key metrics, how to spot the losers and scale the winners.

You''ll discover how we start off our campaigns, test interests, demographics, placement, objectives, pixels, audiences and how we setup up reporting metrics, plus how to quickly identify from the data which ads to kill and which ads to optimize and scale.

You''ll get a personal ‘fly on the wall’ insider view of what we do, why we do it, how we do it’ and how you can do it too.

Nothing is going to be held back…You’ll discover why you need funnels, what they do, how they do it, and how you can leverage the power of funnels to increase the conversion rate from your traffic, and how to turn more visitors into paying customers.

You''ll discover the software tools, apps and exact strategies we use to generate thousands of leads daily, hundreds of thousands of visitors daily, and how we convert these ‘stone cold’ visitors and how we get them to become a new customers.

You''ll walk away from this live event equipped with the knowledge and strategies to leverage the power of Facebook marketing and high converting funnels, and how you can turn cold traffic into sales and new customers without breaking the bank.

We''ll share with you exactly how to take your business from 6 to 7 figures.

You''ll discover, how to build systems, teams, which software we use and what business models to adopt to grow your business in the right way for sustainable and reliable income streams, allowing you more time to work on the more important areas of your business which will help you grow.

related post:
Bartke & Hutchinson – Pixel Mastery Live Singapore (2017)
Pixel Mastery Live (Frankfurt, Germany Full Course 2016)

COST: $1995
More Info: Salepage

also You can find my other last: Business-posts

General
Complete name : 03. Ad Tracking Secrets.mp4
Format : MPEG-4
Format profile : Base Media
Codec ID : isom (isom/iso2/avc1/mp41)
File size : 487 MiB
Duration : 44 min 29 s
Overall bit rate mode : Variable
Overall bit rate : 1 529 kb/s
Season : 0
Movie name : 03. Ad Tracking Secrets
Part : 0

AppleStoreCatalogID : 0

Video
ID : 1
Format : AVC
Format/Info : Advanced Video Codec
Format profile : Baseline@L1.3
Format settings, CABAC : No
Format settings, ReFrames : 1 frame
Format settings, GOP : M=1, N=12
Codec ID : avc1
Codec ID/Info : Advanced Video Coding
Duration : 44 min 29 s
Bit rate : 1 414 kb/s
Width : 1 280 pixels
Height : 720 pixels
Display aspect ratio : 16:9
Frame rate mode : Constant
Frame rate : 30.000 FPS
Color space : YUV
Chroma subsampling : 4:2:0
Bit depth : 8 bits
Scan type : Progressive
Bits/(Pixel*Frame) : 0.051
Stream size : 450 MiB (92%)
Encoded date : UTC 2017-09-19 07:36:45
Tagged date : UTC 2017-09-19 07:36:45
Menus : 3

Audio
ID : 2
Format : AAC
Format/Info : Advanced Audio Codec
Format profile : LC
Codec ID : 40
Duration : 44 min 29 s
Bit rate mode : Variable
Bit rate : 110 kb/s
Channel(s) : 2 channels
Channel positions : Front: L R
Sampling rate : 44.1 kHz
Frame rate : 43.066 FPS (1024 spf)
Compression mode : Lossy
Stream size : 35.1 MiB (7%)
Encoded date : UTC 2017-09-19 07:36:45
Tagged date : UTC 2017-09-19 07:36:45

Menu
ID : 3
Codec ID : text
Duration : 44 min 29 s
Encoded date : UTC 2017-09-19 11:09:18
Tagged date : UTC 2017-09-19 11:09:18
Menu For : 1
00:00:00.000 : Chapter 1

Screenshots

Bartke & Hutchinson - Pixel Mastery Live Los Angeles (2017)

Bartke & Hutchinson - Pixel Mastery Live Los Angeles (2017)

Bartke & Hutchinson - Pixel Mastery Live Los Angeles (2017)

Bartke & Hutchinson - Pixel Mastery Live Los Angeles (2017)

Bartke & Hutchinson - Pixel Mastery Live Los Angeles (2017)

Bartke & Hutchinson - Pixel Mastery Live Los Angeles (2017)

Bartke & Hutchinson - Pixel Mastery Live Los Angeles (2017)

Exclusive eLearning Videos ParRus-blogadd to bookmarks

Feel free to contact me PM
when links are dead or want any repost

Bartke & Hutchinson - Pixel Mastery Live Los Angeles (2017)