Tags
Language
Tags

Udemy - Rails, Elixir developer (2019)

Posted By: ParRus
Udemy - Rails, Elixir developer (2019)

Udemy - Rails, Elixir developer (2019)
WEBRip | English | MP4 + Project Files | 1280 x 720 | AVC ~123 Kbps | 30 fps
AAC | 126 Kbps | 44.1 KHz | 2 channels | ~150 hours | 15.53 GB
Genre: Video Tutorial / Programming

Ruby vs Elixir (Phoenix). Those two excellent programming languages with distinct use cases. Check which one to choose and when. Elixir is built on top of the Erlang VM (virtual machine) – the language itself was invented and co-created by José Valim, a well-known Ruby developer and creator of many great gems (libraries in Ruby parlance) such as Rails or Devise.
Content:

Angular 2 + Rails 5 bootcamp
Build A Weather App With Ruby On Rails
Build crypto currency portfolio app ruby rails
Elixir phoenix real world functional programming
Professional rails 5 development course
Pro ruby on rails rails 5
Ruby on rails for web development

also You can find my other useful: programming-posts

General
Complete name : 15 The Awesome Pipe Operator.mp4
Format : MPEG-4
Format profile : Base Media
Codec ID : isom (isom/iso2/avc1/mp41)
File size : 15.7 MiB
Duration : 8 min 32 s
Overall bit rate : 258 kb/s
Writing application : Lavf57.83.100

Video
ID : 1
Format : AVC
Format/Info : Advanced Video Codec
Format profile : Main@L3.2
Format settings : CABAC / 4 Ref Frames
Format settings, CABAC : Yes
Format settings, RefFrames : 4 frames
Codec ID : avc1
Codec ID/Info : Advanced Video Coding
Duration : 8 min 32 s
Bit rate : 123 kb/s
Width : 1 280 pixels
Height : 720 pixels
Display aspect ratio : 16:9
Frame rate mode : Constant
Frame rate : 30.000 FPS
Color space : YUV
Chroma subsampling : 4:2:0
Bit depth : 8 bits
Scan type : Progressive
Bits/(Pixel*Frame) : 0.004
Stream size : 7.51 MiB (48%)

Audio
ID : 2
Format : AAC
Format/Info : Advanced Audio Codec
Format profile : LC
Codec ID : mp4a-40-2
Duration : 8 min 32 s
Bit rate mode : Constant
Bit rate : 126 kb/s
Channel(s) : 2 channels
Channel(s)_Original : 1 channel
Channel positions : Front: C
Sampling rate : 44.1 kHz
Frame rate : 43.066 FPS (1024 SPF)
Compression mode : Lossy
Stream size : 7.68 MiB (49%)
Default : Yes
Alternate group : 1

Screenshots

Udemy - Rails, Elixir developer (2019)

Udemy - Rails, Elixir developer (2019)

Udemy - Rails, Elixir developer (2019)

Udemy - Rails, Elixir developer (2019)

Udemy - Rails, Elixir developer (2019)

✅ Exclusive eLearning Videos ParRus-blogadd to bookmarks

Feel free to contact me PM
when links are dead or want any repost

Udemy - Rails, Elixir developer (2019)