Subcategories

Jeff Walker - Seed Launch Deep Dive

Posted By: ParRus
Jeff Walker - Seed Launch Deep Dive

Jeff Walker - Seed Launch Deep Dive
WEBRip | English | MP4 + PDF Guides | 724 x 480 | AVC ~267 kbps | AAC | 60.5 Kbps | 44.1 KHz | 2 channels | ~14 hours | 2.62 GB
Genre: eLearning Video / Business, Sales, Marketing

Gentlemen! Say hello to Jeff Walker's "Seed Launch Deep Dive". There are many different types of product launches in PLF, but usually Jeff recommends to create new products by doing a "seed launch". Great for newbies as well as for rolling out new products in an existing business. This course goes in depth about this specific kind of launch.
It teaches you how to build an initial list of about 300 people, then sell them the product that has not yet been created (get paid in advance for creating your product), and then create that product WITH your audience. That way you can be sure the product is a perfect match for the market and will later practically sell itself.

This is usually done by delivering teleseminars or webinars, maybe 5 or 6, on a weekly basis. Every week you will deliver content, answer questions and then survey your audience about what they want to learn the following week.

If you would like to know more, download the prelaunch folder only and watch those two videos first to decide.

Also included:

- Audio Versions of the core training for your convenience - uncheck to save ratio if you'd rather have video only (or the other way round)

- A tutorial for working with lead pages to get that initial list growth going

- Two case studies of successful seed launches

- Swipe files for emails and surveys

- 9 Q&A calls where Jeff, his brother Jon Walker and his Product Launch Coach Mark Evans answer questions from students.


Jeff Walker's Description:

I love Seed Launches for two things… the first is for
starting out from scratch. I love love love using a
Seed Launch to start a business. It’s my standard
default plan whenever I start something new.

The second thing I use a Seed Launch for is when I want
to roll out a new product for an existing business,
and I want to test the offer and learn exactly what
type of product/offer I need to create.

In both cases, you get paid BEFORE you actually deliver
the product. That’s pretty cool. And you basically
co-create the product with your new clients, which
makes it a LOT easier.

As you can probably tell, I’m a big fan of Seed Launches.
That’s why I’m so excited about the Deep Dive. I can’t
wait to hear the success stories that are going to come
out of this training…

also You can look my other last: Business-posts

General
Complete name : Seed_Launch_Module_2_Part_2.mp4
Format : MPEG-4
Format profile : Base Media
Codec ID : isom
File size : 203 MiB
Duration : 1h 19mn
Overall bit rate mode : Variable
Overall bit rate : 355 Kbps
Encoded date : UTC 2013-07-12 15:43:33
Tagged date : UTC 2013-07-12 15:43:33
Writing application : Lavf54.6.100

Video
ID : 1
Format : AVC
Format/Info : Advanced Video Codec
Format profile : Baseline@L3.0
Format settings, CABAC : No
Format settings, ReFrames : 2 frames
Format settings, GOP : M=1, N=30
Codec ID : avc1
Codec ID/Info : Advanced Video Coding
Duration : 1h 19mn
Bit rate : 267 Kbps
Nominal bit rate : 800 Kbps
Width : 724 pixels
Height : 480 pixels
Display aspect ratio : 3:2
Frame rate mode : Constant
Frame rate : 30.000 fps
Color space : YUV
Chroma subsampling : 4:2:0
Bit depth : 8 bits
Scan type : Progressive
Bits/(Pixel*Frame) : 0.026
Stream size : 152 MiB (75%)
Writing library : x264 core 118
Encoding settings : cabac=0 / ref=2 / deblock=1:0:0 / analyse=0x1:0x111 / me=umh / subme=8 / psy=0 / mixed_ref=1 / me_range=16 / chroma_me=1 / trellis=1 / 8x8dct=0 / cqm=0 / deadzone=21,11 / fast_pskip=1 / chroma_qp_offset=0 / threads=12 / sliced_threads=0 / nr=0 / decimate=1 / interlaced=0 / bluray_compat=0 / constrained_intra=0 / bframes=0 / weightp=0 / keyint=30 / keyint_min=16 / scenecut=40 / intra_refresh=0 / rc_lookahead=30 / rc=abr / mbtree=1 / bitrate=800 / ratetol=1.0 / qcomp=0.60 / qpmin=10 / qpmax=51 / qpstep=4 / ip_ratio=1.40 / aq=1:1.00
Language : English
Encoded date : UTC 2013-07-12 15:43:33
Tagged date : UTC 2013-07-13 16:05:28

Audio
ID : 2
Format : AAC
Format/Info : Advanced Audio Codec
Format profile : LC
Codec ID : 40
Duration : 1h 19mn
Bit rate mode : Variable
Bit rate : 60.8 Kbps
Maximum bit rate : 96.0 Kbps
Channel(s) : 2 channels
Channel positions : Front: L R
Sampling rate : 44.1 KHz
Compression mode : Lossy
Stream size : 34.7 MiB (17%)
Language : English
Encoded date : UTC 2013-07-12 15:43:33
Tagged date : UTC 2013-07-13 16:05:28

Screenshots

Jeff Walker - Seed Launch Deep Dive

Jeff Walker - Seed Launch Deep Dive

Jeff Walker - Seed Launch Deep Dive

Jeff Walker - Seed Launch Deep Dive

For more Exclusive material, Visit my AH-blog

Jeff Walker - Seed Launch Deep Dive