Subcategories

Kelby Training - Seeing The Light with Eddie Tapp [repost]

Posted By: ParRus
Kelby Training - Seeing The Light with Eddie Tapp [repost]

Kelby Training - Seeing The Light with Eddie Tapp
DVDRip | MOV | English | 877 x 512 | AVC ~5951 kbps | 30 fps
AAC | 59.1 Kbps | 22.05 KHz | 2 channels | 00:34:34 | 1.37 GB
Genre: Video Tutorial / Photographing

The video series follows one of the industry's best photographers as he explains some of his techniques for creating spectacular lighting
Eddie Tapp is an award-winning photographer, lecturer, consultant and author on digital imaging issues. As an award-winning photographer with over 20 years of experience in computer technology. Eddie has been actively involved in educating and consulting with corporations, studios, and agencies in the applications of digital imaging workflow, color management, pre-press, and digital photography globally. Clients include Epson, Eastman Kodak, Foveon, Polaroid, Apple Computer, The Society for Imaging Science and Technology, Dynacolor Graphics, Marathon Press, H&H Color Lab, CPQ Color Lab, PhotoLogic (Ireland), PGC (Japan), DOD, DOE US Army, US Navy,and other Government agencies along with a list of photographic studio operations

Content:

Lesson 01 Introduction (1:00)
Lesson 02 Setting Up (3:50)
Lesson 03 Getting the Insurance Policy (3:42)
Lesson 04 Photo Shoot (5:01)
Lesson 05 Break the Rules (5:49)
Lesson 06 Light and Shadow (5:37)
Lesson 07 Pocket of Light (8:54)

also You can look my other last: Photography-posts

General
Complete name : 3.Getting the Insurance Policy.mov
Format : MPEG-4
Format profile : QuickTime
Codec ID : qt
File size : 168 MiB
Duration : 3mn 54s
Overall bit rate : 6 016 Kbps
Encoded date : UTC 2008-10-14 20:58:54
Tagged date : UTC 2008-10-14 21:02:49
Writing library : Apple QuickTime

Video
ID : 1
Format : MPEG-4 Visual
Format profile : Advanced Simple@L3
Format settings, BVOP : Yes
Format settings, QPel : No
Format settings, GMC : No warppoints
Format settings, Matrix : Default (H.263)
Codec ID : 20
Duration : 3mn 54s
Bit rate : 5 951 Kbps
Width : 877 pixels
Height : 512 pixels
Display aspect ratio : 1.713
Frame rate mode : Variable
Frame rate : 30.000 fps
Minimum frame rate : 15.385 fps
Maximum frame rate : 120.000 fps
Color space : YUV
Bit depth : 8 bits
Scan type : Progressive
Compression mode : Lossy
Bits/(Pixel*Frame) : 0.442
Stream size : 166 MiB (99%)
Language : English
Encoded date : UTC 2008-10-14 20:58:54
Tagged date : UTC 2008-10-14 21:02:49
Transfer characteristics : BT.601
Matrix coefficients : BT.601

Audio
ID : 2
Format : AAC
Format/Info : Advanced Audio Codec
Format profile : LC
Codec ID : 40
Duration : 3mn 54s
Bit rate mode : Constant
Bit rate : 59.1 Kbps
Nominal bit rate : 64.0 Kbps
Channel(s) : 2 channels
Channel positions : Front: L R
Sampling rate : 22.05 KHz
Compression mode : Lossy
Stream size : 1.65 MiB (1%)
Language : English
Encoded date : UTC 2008-10-14 20:58:55
Tagged date : UTC 2008-10-14 21:02:49

Screenshots

Kelby Training - Seeing The Light with Eddie Tapp [repost]

Kelby Training - Seeing The Light with Eddie Tapp [repost]

Kelby Training - Seeing The Light with Eddie Tapp [repost]

Kelby Training - Seeing The Light with Eddie Tapp [repost]

Kelby Training - Seeing The Light with Eddie Tapp [repost]

Kelby Training - Seeing The Light with Eddie Tapp [repost]

Exclusive eLearning Videos ParRus-blogadd to bookmarks

Kelby Training - Seeing The Light with Eddie Tapp [repost]