Subcategories

Six Figure Capital – Forex Course

Posted By: ParRus
Six Figure Capital – Forex Course

Six Figure Capital – Forex Course
WEBRip | English | MP4 | 1280 x 720 | AVC ~571 Kbps | 30 fps
AAC | 132 Kbps | 44.1 KHz | 2 channels | ~40 hours | 13.86 GB
Genre: eLearning Video / Forex, Trading, Stock

Get capitalised! Take your trading to the next level by learning the various routes to take when looking to grow your capital to six figures and beyond… I’ve been trading financial markets since late 2013 and throughout my career I’ve focused on three asset classes for building wealth… Forex, commodities and cryptocurrencies.
To most individuals the idea of trading more than one market is absurd. Everyone assumes you need to pick a side, if you’re going to learn how to trade it’s either forex or stocks.

Well, what if I told you that I use the same trading strategy for various financial markets?

Over the past 2 years I have been fine tuning my strategy by testing its application in various financial markets and trading situations. This is the exact same strategy that is now being implemented across different asset classes successfully by our students here at Six Figure Capital.

So what’s the secret?

There is no secret, it’s what we like to call… The 14 day course.

The 14 day course is the foundation for prosperous trading, it is designed to take any trader no matter their experience level from rookie to expert. This is the precursor of the harmonic mastery course which is one of the most advanced technical trading courses available.

When it comes to educating my students, I provide the exact same strategy I personally use to make profit in forex, commodities and cryptocurrencies.

Meaning… I’m going to save you a lot of time, money and headaches by showing you what ACTUALLY works, to help you get the results you want.

cut your learning curve by 90%

Join pro trader Lewis Glasgow and learn to trade the forex market in just 14 days.

Value: £800
More Info: Salepage


also You can find my other: Trading-posts

General
Complete name : 5. Japanese Candlesticks.mp4
Format : MPEG-4
Format profile : Base Media / Version 2
Codec ID : mp42 (isom/mp41/avc1)
File size : 198 MiB
Duration : 39 min 13 s
Overall bit rate mode : Variable
Overall bit rate : 705 kb/s
Encoded date : UTC 2019-08-05 23:09:58
Tagged date : UTC 2019-08-05 23:09:58
Writing library : Apple QuickTime

Video
ID : 1
Format : AVC
Format/Info : Advanced Video Codec
Format profile : Main@L3.1
Format settings : CABAC / 3 Ref Frames
Format settings, CABAC : Yes
Format settings, RefFrames : 3 frames
Codec ID : avc1
Codec ID/Info : Advanced Video Coding
Duration : 39 min 13 s
Bit rate : 571 kb/s
Width : 1 280 pixels
Height : 720 pixels
Display aspect ratio : 16:9
Frame rate mode : Constant
Frame rate : 30.000 FPS
Color space : YUV
Chroma subsampling : 4:2:0
Bit depth : 8 bits
Scan type : Progressive
Bits/(Pixel*Frame) : 0.021
Stream size : 160 MiB (81%)
Language : English
Encoded date : UTC 2019-08-05 23:09:58
Tagged date : UTC 2019-08-05 23:09:58
Color range : Limited
Color primaries : BT.709
Transfer characteristics : BT.709
Matrix coefficients : BT.709

Audio
ID : 2
Format : AAC
Format/Info : Advanced Audio Codec
Format profile : LC
Codec ID : mp4a-40-2
Duration : 39 min 13 s
Bit rate mode : Variable
Bit rate : 132 kb/s
Maximum bit rate : 162 kb/s
Channel(s) : 2 channels
Channel positions : Front: L R
Sampling rate : 44.1 kHz
Frame rate : 43.066 FPS (1024 SPF)
Compression mode : Lossy
Stream size : 36.7 MiB (19%)
Language : English
Encoded date : UTC 2019-08-05 23:09:58
Tagged date : UTC 2019-08-05 23:09:58

Screenshots

Six Figure Capital – Forex Course

Six Figure Capital – Forex Course

Six Figure Capital – Forex Course

Six Figure Capital – Forex Course

✅ Exclusive eLearning Videos ParRus-blogadd to bookmarks

Feel free to contact me PM
when links are dead or want any repost

Six Figure Capital – Forex Course