Subcategories

Tai Lopez Social Media Marketing Expert Training (Complete)

Posted By: ParRus
Tai Lopez Social Media Marketing Expert Training (Complete)

Tai Lopez Social Media Marketing Expert Training
WEBRip | English | MP4 + PDF Guides | 1920 x 1080 | AVC ~2685 kbps | 29.970 fps
AAC | 128 Kbps | 44.1 KHz | 2 channels | Duration: 30:26:16 | 28.66 GB
Genre: eLearning Video / Business, Consulting

Social media marketing is, easily and decisively, the best way for any business to raise awareness and increase interest in their products or services. I’ve been able to successfully start dozens of new businesses – and scale already-existing businesses, thanks to social media. Here’s why social media is so powerful: because it’s so pervasive in our everyday lives, and will continue to influence how people behave as time goes on. Not a day goes by where you, or someone around you, doesn’t check their social media. As a business owner, this is a powerful concept.
HOW THIS 4-MONTH SOCIAL MEDIA MARKETING PROGRAM WORKS:

· MONTH #1 ” The first 30 days will show you how to pick your niche, form your company, get started with practicing on social media marketing on your own business.

· MONTH #2 ” During the second month, I’ll show you how to become a master of social media. You’ll be given templates, checklists, and guides that are consistently updated over time, so you always have the most up-to-date info.

· MONTH #3 ” Once you’ve become a master of social media, we’ll show you the best ways to acquire high-value customers. We’ll give you a checklist of businesses you can contact that’ll easily agree to a $1k/mo (or more) fee, in addition to giving you scripts that show you how to close the deal.

· MONTH #4 ” During this last month, we’ll show you how to service your customers, build your team, and automate your workflow. This last month is all about making your service-based business as “hands free” as possible, so you can make more money without adding a ton of time-consuming work.

also You can watch my other last: Business-posts

General
Complete name :78. How To Get Qualified Prospects With Bryson Hilton.MP4
Format : MPEG-4
Format profile : Base Media
Codec ID : isom
File size : 168 MiB
Duration : 8mn 18s
Overall bit rate mode : Variable
Overall bit rate : 2 830 Kbps
Season : 0
Movie name : 78. How To Get Qualified Prospects With Bryson Hilton
Part : 0

AppleStoreCatalogID : 0

Video
ID : 1
Format : AVC
Format/Info : Advanced Video Codec
Format profile : High@L4
Format settings, CABAC : Yes
Format settings, ReFrames : 4 frames
Codec ID : avc1
Codec ID/Info : Advanced Video Coding
Duration : 8mn 18s
Bit rate : 2 685 Kbps
Width : 1 920 pixels
Height : 1 080 pixels
Display aspect ratio : 16:9
Frame rate mode : Constant
Frame rate : 29.970 fps
Color space : YUV
Chroma subsampling : 4:2:0
Bit depth : 8 bits
Scan type : Progressive
Bits/(Pixel*Frame) : 0.043
Stream size : 160 MiB (95%)
Writing library : x264 core 148 r2721 72d53ab
Encoding settings : cabac=1 / ref=4 / deblock=1:0:0 / analyse=0x3:0x113 / me=umh / subme=8 / psy=1 / psy_rd=1.00:0.00 / mixed_ref=1 / me_range=16 / chroma_me=1 / trellis=1 / 8x8dct=1 / cqm=0 / deadzone=21,11 / fast_pskip=1 / chroma_qp_offset=-2 / threads=12 / lookahead_threads=2 / sliced_threads=0 / nr=0 / decimate=1 / interlaced=0 / bluray_compat=0 / constrained_intra=0 / bframes=3 / b_pyramid=2 / b_adapt=2 / b_bias=0 / direct=3 / weightb=1 / open_gop=0 / weightp=2 / keyint=89 / keyint_min=45 / scenecut=0 / intra_refresh=0 / rc_lookahead=40 / rc=crf / mbtree=1 / crf=23.0 / qcomp=0.60 / qpmin=10 / qpmax=51 / qpstep=4 / vbv_maxrate=5625 / vbv_bufsize=5625 / crf_max=0.0 / nal_hrd=none / filler=0 / ip_ratio=1.41 / aq=1:1.00
Language : English

Audio
ID : 2
Format : AAC
Format/Info : Advanced Audio Codec
Format profile : LC
Codec ID : 40
Duration : 8mn 18s
Duration_LastFrame : -18ms
Bit rate mode : Variable
Bit rate : 128 Kbps
Maximum bit rate : 135 Kbps
Channel(s) : 2 channels
Channel positions : Front: L R
Sampling rate : 44.1 KHz
Compression mode : Lossy
Stream size : 7.61 MiB (5%)
Language : English

Menu
ID : 3
Codec ID : text
Duration : 8mn 18s
Encoded date : UTC 2017-03-24 09:09:58
Tagged date : UTC 2017-03-24 09:09:58
00:00:00.000 : Chapter 1

Screenshots

Tai Lopez Social Media Marketing Expert Training (Complete)

Tai Lopez Social Media Marketing Expert Training (Complete)

Tai Lopez Social Media Marketing Expert Training (Complete)

Tai Lopez Social Media Marketing Expert Training (Complete)

Tai Lopez Social Media Marketing Expert Training (Complete)

Exclusive eLearning Videos ParRus-blogadd to bookmarks

Feel free to contact me PM
when links are dead or want any repost

Tai Lopez Social Media Marketing Expert Training (Complete)