Subcategories

Gemini Video Guitar Lesson - Stoner Rock Riffing Volume One (2015)

Posted By: ParRus
Gemini Video Guitar Lesson - Stoner Rock Riffing Volume One (2015)

Gemini Video Guitar Lesson - Stoner Rock Riffing Volume One (2015)
DVDRip | English | MP4 + WAV jam tracks + PDF tabs | 1280 x 720 | AVC ~1991 Kbps | 25 fps
AAC | 192 Kbps | 44.1 KHz | 2 channels | 1h 18mn | 1.24 GB
Genre: eLearning Video / Guitar lesson (2015)

Stoner Rock Riffing Volume 1 brings the exciting sounds and techniques of Stoner Rock to your fingertips. Tune down to C, and let the riffing begin! One very big difference with Gemini Guitar's video lessons are that students learn everything within the context of real sounding music. These aren't a bunch of sterile, boring and lifeless exercises. They are real sounding riffs, written with passion and a genuine love for the style explored.
All the ideas are broken up into easy to digest fragments, making learning as easy as possible. All details are covered, as well as some helpful hints on playing along the way. Comes with drum backing tracks so you can jam along and create your own ideas. Also comes with transcriptions for Guitar Pro 6, as well as PDF format.

Level: Intermediate
Running time: 78mins

Includes:
-Video lessons + performances of each example
-Drum tracks
-Guitar Pro and PDF transcriptions
-PDF Scale diagrams

also You can look my other last: Guitar Lessons-posts

General
Complete name : Stoner Rock Riffing V1.mp4
Format : MPEG-4
Format profile : Base Media / Version 2
Codec ID : mp42
File size : 1.16 GiB
Duration : 1h 18mn
Overall bit rate : 2 123 Kbps
Encoded date : UTC 2012-10-03 09:11:04
Tagged date : UTC 2012-10-03 09:11:04

Video
ID : 2
Format : AVC
Format/Info : Advanced Video Codec
Format profile : Main@L3.1
Format settings, CABAC : Yes
Format settings, ReFrames : 5 frames
Format settings, GOP : M=3, N=24
Codec ID : avc1
Codec ID/Info : Advanced Video Coding
Duration : 1h 18mn
Bit rate mode : Variable
Bit rate : 1 991 Kbps
Width : 1 280 pixels
Height : 720 pixels
Display aspect ratio : 16:9
Frame rate mode : Constant
Frame rate : 25.000 fps
Standard : NTSC
Color space : YUV
Chroma subsampling : 4:2:0
Bit depth : 8 bits
Scan type : Progressive
Bits/(Pixel*Frame) : 0.086
Stream size : 1.09 GiB (94%)
Language : English
Encoded date : UTC 2012-10-03 09:11:04
Tagged date : UTC 2012-10-03 09:11:04

Audio
ID : 1
Format : AAC
Format/Info : Advanced Audio Codec
Format profile : LC
Codec ID : 40
Duration : 1h 18mn
Bit rate mode : Constant
Bit rate : 128 Kbps
Channel(s) : 2 channels
Channel positions : Front: L R
Sampling rate : 44.1 KHz
Compression mode : Lossy
Stream size : 71.9 MiB (6%)
Language : English
Encoded date : UTC 2012-10-03 09:11:04
Tagged date : UTC 2012-10-03 09:11:04
Screenshots

Gemini Video Guitar Lesson - Stoner Rock Riffing Volume One (2015)

Gemini Video Guitar Lesson - Stoner Rock Riffing Volume One (2015)

Gemini Video Guitar Lesson - Stoner Rock Riffing Volume One (2015)

Gemini Video Guitar Lesson - Stoner Rock Riffing Volume One (2015)

For more, Visit my AH-blog

Gemini Video Guitar Lesson - Stoner Rock Riffing Volume One (2015)