Subcategories

Swing Trader Society Course

Posted By: ParRus
Swing Trader Society Course

Swing Trader Society Course
WEBRip | English | MP4 | 1280 x 720 | AVC ~460 Kbps | 29.970 fps
AAC | 137 Kbps | 48.0 KHz | 2 channels | ~3 hours | 1.12 GB
Genre: eLearning Video / Forex, Trading, Stock

We are not a 'Get Rich Quick' fad, or a dodgy 'Signal Selling' service. What we are is an educational platform for those looking to take on the challenge of becoming a successful Foreign Exchange Trader. At the Swing Trader Society we deliver educational material through our membership avenues to teach our students the knowledge and skills required to become successful traders. So, I guess you probably want to know who this education is tailored for…
Do any of the above common problems ring any bells? Any of them sound familiar? If they do then fantastic, because it means you're in the right place for us to be able to help you and provide tailored mentorship to help you overcome the specific challenges that you face as a trader. Whilst joining us as a sapphire member will teach you all you need to know, sometimes it's important to get that tailored mentorship. Someone to reach out to in order to speak through any problems that you are facing. Trading can sometimes be a lonely journey, which is why you'll gain the full benefit of entering the Swing Trader Society…

You can find my other useful: Trading-posts

General
Complete name : 3. Video 3.mp4
Format : MPEG-4
Format profile : Base Media / Version 2
Codec ID : mp42 (mp42/mp41/isom/avc1)
File size : 53.8 MiB
Duration : 12 min 30 s
Overall bit rate mode : Variable
Overall bit rate : 601 kb/s
Encoded date : UTC 2019-02-24 18:49:42
Tagged date : UTC 2019-02-24 18:49:42

Video
ID : 1
Format : AVC
Format/Info : Advanced Video Codec
Format profile : High@L3.2
Format settings : CABAC / 5 Ref Frames
Format settings, CABAC : Yes
Format settings, RefFrames : 5 frames
Codec ID : avc1
Codec ID/Info : Advanced Video Coding
Duration : 12 min 30 s
Bit rate : 460 kb/s
Width : 1 280 pixels
Height : 720 pixels
Display aspect ratio : 16:9
Frame rate mode : Constant
Frame rate : 29.970 (30000/1001) FPS
Color space : YUV
Chroma subsampling : 4:2:0
Bit depth : 8 bits
Scan type : Progressive
Bits/(Pixel*Frame) : 0.017
Stream size : 41.1 MiB (76%)
Writing library : x264 core 157 r10 545de2f
Encoding settings : cabac=1 / ref=5 / deblock=1:0:0 / analyse=0x3:0x113 / me=hex / subme=8 / psy=1 / psy_rd=1.00:0.00 / mixed_ref=1 / me_range=16 / chroma_me=1 / trellis=2 / 8x8dct=1 / cqm=0 / deadzone=21,11 / fast_pskip=1 / chroma_qp_offset=-2 / threads=22 / lookahead_threads=3 / sliced_threads=0 / nr=0 / decimate=1 / interlaced=0 / bluray_compat=0 / stitchable=1 / constrained_intra=0 / bframes=3 / b_pyramid=2 / b_adapt=2 / b_bias=0 / direct=3 / weightb=1 / open_gop=0 / weightp=2 / keyint=infinite / keyint_min=29 / scenecut=40 / intra_refresh=0 / rc_lookahead=50 / rc=crf / mbtree=1 / crf=20.0 / qcomp=0.60 / qpmin=5 / qpmax=69 / qpstep=4 / vbv_maxrate=2750 / vbv_bufsize=7500 / crf_max=0.0 / nal_hrd=none / filler=0 / ip_ratio=1.40 / aq=1:1.00
Encoded date : UTC 2019-02-24 18:49:42
Tagged date : UTC 2019-02-24 18:49:42
Color range : Limited
Color primaries : BT.709
Transfer characteristics : BT.709
Matrix coefficients : BT.709

Audio
ID : 2
Format : AAC
Format/Info : Advanced Audio Codec
Format profile : LC
Codec ID : mp4a-40-2
Duration : 12 min 30 s
Bit rate mode : Variable
Bit rate : 137 kb/s
Channel(s) : 2 channels
Channel positions : Front: L R
Sampling rate : 48.0 kHz
Frame rate : 46.875 FPS (1024 SPF)
Compression mode : Lossy
Stream size : 12.3 MiB (23%)
Encoded date : UTC 2019-02-24 18:49:42
Tagged date : UTC 2019-02-24 18:49:42

Screenshots

Swing Trader Society Course

Swing Trader Society Course

Swing Trader Society Course

Swing Trader Society Course

✅ Exclusive eLearning Videos ParRus-blogadd to bookmarks

Feel free to contact me PM
when links are dead or want any repost

Swing Trader Society Course