Subcategories

Tim Sykes - How To Make Millions

Posted By: ParRus
Tim Sykes - How To Make Millions

Tim Sykes - How To Make Millions
13xDVDRip's | English | MP4 | 1280 x 720 | AVC ~86.2 Kbps | 29.970 fps
AAC | 69.1 Kbps | 48.0 KHz | 2 channels | 34:51:56 | 15.28 GB
Genre: eLearning Video / Trading, Stock

One of the biggest questions I've seen people ask is which DVD of Tim's to watch. I mean, there are so MANY!!! Each of them focuses on different techniques, strategies, or aspects to trading. He has one DVD on Biotech trading. Another DVD on the SEC. Other DVD's on shorting.
How do you know which one is the best, and if it's even any good?

I'm going to cut through all of the confusion and get straight to it.

The best DVD to date from Tim Sykes is How to Make Millions. If you're on the fence and uncertain about whether or not to sign up with Tim, this is the single product I would recommend you get. You will get all of the strategies and answers you need to start trading successfully.

What You Get
-How to Enter Orders
-The Best Brokers to Use
-The Best Software Tools and Research Websites
-Lessons on Trading Vocabulary
-Stock Trading Patterns
-When to Trade
-When Not to Trade
-Position Sizing
-Loss Cutting
-Planning Out Your Trades
-How to Grow Small Accounts Exponentially

Why It Really Is the Best DVD
If you've been on my website much, you know the biggest complaint I have against Tim is that he's a terrible teacher. He doesn't always answer your questions and spends more time promoting his products than teaching his strategies.

With How to Make Millions, that problem goes away for one simple reason: Tim isn't the one doing most of the teaching.

In this DVD, Tim has brought together half a dozen traders that have made over $1 million, including my personal favorite, Superman. That means that you don't have to listen to Tim drone on with all of his marketing BS. You get to hear from some elite, one-of-a-kind traders on how they do it. This includes both of his millionaire students, as well as some of the other Guru's.

The Best Part
Take a look at this Youtube comment on one of Tim's videos.

I wonder if Tim will reveal the huge amount of money he makes from students.

This is the part that most people get hung up on. Tim charges a hefty fee to teach you the strategies he uses to be successful in the stock market. I see a couple of major problems with that argument.

1) This is America, and it's every man's right to pursue wealth. Nobody complains that McDonalds charges you money for food, yet they expect Tim to give his Big Mac recipe away for free.
2) People willingly pay to go to college to learn the same material. Tim is doing a service by charging less than tuition would cost to learn it.

So, to all of the haters out there, here's the good news. On the How to Make Millions DVD, Tim gives all of the money away to charity. Through the Timothy Sykes Foundation, Tim gives a $10,000 scholarship to a college student every year, and then gives the rest of the money to various organizations around the world.

In other words, Tim doesn't make any money off of this product.

For those with a personal vendetta against the American dream and Timothy Sykes, How to Make Millions is for you. All of the money goes to help charitable causes and one lucky college student.

How To Make Millions
Listen, there's a lot of risk involved with trading. People lose a lot of money. It is a zero-sum game.

But for any person willing to take that risk, there's going to be a period of time that a lot of learning needs to be done. You can try it on your own, or choose to learn from somebody else. The reason I say this is the best DVD is because it brings together the best of all of Tim's Gurus. You get to learn trading strategies from half a dozen traders, not just Tim. Some of the guys you'll be learning from aren't selling some plan to try to make money off of you. They're just teaching you what they do.

It's that simple.

There's a lot of benefit to this DVD. All of the profits go to charity, and you get to learn. For a short time, you can save 70% on this new DVD by clicking here: How to Make Millions. Get this DVD before any others. It will save you a ton of time, and hopefully help you make a lot of money.

also You can find my other: Trading-posts

General
Complete name : Video3.mp4
Format : MPEG-4
Format profile : Base Media
Codec ID : isom (isom/iso2/avc1/mp41)
File size : 196 MiB
Duration : 2 h 45 min
Overall bit rate : 166 kb/s

Video
ID : 1
Format : AVC
Format/Info : Advanced Video Codec
Format profile : High@L3.1
Format settings : CABAC / 4 Ref Frames
Format settings, CABAC : Yes
Format settings, RefFrames : 4 frames
Codec ID : avc1
Codec ID/Info : Advanced Video Coding
Duration : 2 h 45 min
Bit rate : 86.2 kb/s
Width : 1 280 pixels
Height : 720 pixels
Display aspect ratio : 16:9
Frame rate mode : Constant
Frame rate : 29.970 (29970/1000) FPS
Color space : YUV
Chroma subsampling : 4:2:0
Bit depth : 8 bits
Scan type : Progressive
Bits/(Pixel*Frame) : 0.003
Stream size : 102 MiB (52%)
Writing library : x264 core 129
Encoding settings : cabac=1 / ref=3 / deblock=1:0:0 / analyse=0x3:0x113 / me=hex / subme=7 / psy=1 / psy_rd=1.00:0.00 / mixed_ref=1 / me_range=16 / chroma_me=1 / trellis=1 / 8x8dct=1 / cqm=0 / deadzone=21,11 / fast_pskip=1 / chroma_qp_offset=-2 / threads=2 / lookahead_threads=1 / sliced_threads=0 / nr=0 / decimate=1 / interlaced=0 / bluray_compat=0 / constrained_intra=0 / bframes=3 / b_pyramid=2 / b_adapt=1 / b_bias=0 / direct=1 / weightb=1 / open_gop=0 / weightp=2 / keyint=250 / keyint_min=25 / scenecut=40 / intra_refresh=0 / rc_lookahead=40 / rc=crf / mbtree=1 / crf=23.0 / qcomp=0.60 / qpmin=0 / qpmax=69 / qpstep=4 / ip_ratio=1.40 / aq=1:1.00

Audio
ID : 2
Format : AAC
Format/Info : Advanced Audio Codec
Format profile : LC
Codec ID : mp4a-40-2
Duration : 2 h 45 min
Bit rate mode : Constant
Bit rate : 69.1 kb/s
Channel(s) : 2 channels
Channel positions : Front: L R
Sampling rate : 48.0 kHz
Frame rate : 46.875 FPS (1024 SPF)
Compression mode : Lossy
Stream size : 81.5 MiB (42%)
Default : Yes
Alternate group : 1

Screenshots

Tim Sykes - How To Make Millions

Tim Sykes - How To Make Millions

Tim Sykes - How To Make Millions

Tim Sykes - How To Make Millions

Tim Sykes - How To Make Millions

Tim Sykes - How To Make Millions

✅ Exclusive eLearning Videos ParRus-blogadd to bookmarks

Feel free to contact me PM
when links are dead or want any repost

Tim Sykes - How To Make Millions