Subcategories

Trance Music Mastery - VIP PASS Session 1 Module 3

Posted By: ParRus
Trance Music Mastery - VIP PASS Session 1 Module 3

Trance Music Mastery - VIP PASS Session 1 Module 3
English | MP4 | 1280 x 720 | AVC ~548 Kbps | 29.970 fps
AAC | 164 kbps | 48.0 KHz | 2 channels | 02:49:36 | 927 MB
Genre: Video Tutorial / Sound Processing

This Month’s Focus Is On “Melbourne” by Sean Tyas. Session 1 studies the track Melbourne by Sean Tyas and seeks to replicate stylistic elements present in this track.
Content:
Introduction
Song Play Through
Basslines – Song Intro – Part 1 of 4
Basslines – Song Intro – Part 2 of 4
Basslines – Song Intro – Part 3 of 4
Basslines – Song Intro – Part 4 of 4
Break / Buildup Changes and Basslines – Part 1 of 2
Break / Buildup Changes and Basslines – Part 2 of 2
Chorus Changes And Basslines
Basslines – Song Outro
Transitions – Part 1 of 2
Transitions – Part 2 of 2
Sound Design – FM Bass
Sound Design – Acid Bass
Conclusion

More Info: www.trancemusicmastery.com

General
Complete name : TMM-VIP-DEC-2010-MODULE-3-VIDEO-3-1_qtp.mp4
Format : MPEG-4
Format profile : Base Media
Codec ID : isom
File size : 61.3 MiB
Duration : 11mn 56s
Overall bit rate mode : Variable
Overall bit rate : 718 Kbps
Writing application : Lavf52.32.0
Video #1
ID : 1
Format : AVC
Format/Info : Advanced Video Codec
Format profile : Main@L3.1
Format settings, CABAC : Yes
Format settings, ReFrames : 1 frame
Codec ID : avc1
Codec ID/Info : Advanced Video Coding
Duration : 11mn 56s
Bit rate : 548 Kbps
Width : 1 280 pixels
Height : 720 pixels
Display aspect ratio : 16:9
Frame rate mode : Constant
Frame rate : 29.970 fps
Color space : YUV
Chroma subsampling : 4:2:0
Bit depth : 8 bits
Scan type : Progressive
Bits/(Pixel*Frame) : 0.020
Stream size : 46.8 MiB (76%)
Language : English
Audio #2
ID : 2
Format : AAC
Format/Info : Advanced Audio Codec
Format profile : LC
Codec ID : 40
Duration : 11mn 55s
Bit rate mode : Variable
Bit rate : 164 Kbps
Channel(s) : 2 channels
Channel positions : Front: L R
Sampling rate : 48.0 KHz
Compression mode : Lossy
Stream size : 14.0 MiB (23%)
Language : English
Screenshots

Trance Music Mastery - VIP PASS Session 1 Module 3

Trance Music Mastery - VIP PASS Session 1 Module 3

Trance Music Mastery - VIP PASS Session 1 Module 3

For more, Visit my AH-blog

no mirrors please, Follow The Rules