Subcategories

Trance Music Mastery - VIP PASS Session 1 Module 4

Posted By: ParRus
Trance Music Mastery - VIP PASS Session 1 Module 4

Trance Music Mastery - VIP PASS Session 1 Module 4
English | MP4 | 1280 x 720 | AVC ~493 Kbps | 29.970 fps
AAC | 122 kbps | 48.0 KHz | 2 channels | 07:10:27 | 2.12 GB
Genre: Video Tutorial / Sound Processing

This Month’s Focus Is On “Melbourne” by Sean Tyas. Session 1 studies the track Melbourne by Sean Tyas and seeks to replicate stylistic elements present in this track.
Content:
EQ Curves of Pro Mixes
Mixing Session 1
Mixing Session 2
Mixing Session 3
Mixing Session 4
EQ Curves of Pro Mixes
Mixing Session 5
Final Mixing Session 2 Parts
Master EQ
Master Compression
Master Limiting
Final Master Play Thru
Conclusion

More Info: www.trancemusicmastery.com

General
Complete name : TMM-VIP-DEC-2010-MODULE-4-VIDEO-3_qtp.mp4
Format : MPEG-4
Format profile : Base Media
Codec ID : isom
File size : 243 MiB
Duration : 54mn 47s
Overall bit rate mode : Variable
Overall bit rate : 620 Kbps
Writing application : Lavf52.32.0
Video #1
ID : 1
Format : AVC
Format/Info : Advanced Video Codec
Format profile : Main@L3.1
Format settings, CABAC : Yes
Format settings, ReFrames : 1 frame
Codec ID : avc1
Codec ID/Info : Advanced Video Coding
Duration : 54mn 47s
Bit rate : 493 Kbps
Width : 1 280 pixels
Height : 720 pixels
Display aspect ratio : 16:9
Frame rate mode : Constant
Frame rate : 29.970 fps
Color space : YUV
Chroma subsampling : 4:2:0
Bit depth : 8 bits
Scan type : Progressive
Bits/(Pixel*Frame) : 0.018
Stream size : 193 MiB (80%)
Language : English
Audio #2
ID : 2
Format : AAC
Format/Info : Advanced Audio Codec
Format profile : LC
Codec ID : 40
Duration : 54mn 46s
Bit rate mode : Variable
Bit rate : 122 Kbps
Channel(s) : 2 channels
Channel positions : Front: L R
Sampling rate : 48.0 KHz
Compression mode : Lossy
Stream size : 47.8 MiB (20%)
Language : English
Screenshots

Trance Music Mastery - VIP PASS Session 1 Module 4

Trance Music Mastery - VIP PASS Session 1 Module 4

Trance Music Mastery - VIP PASS Session 1 Module 4

For more, Visit my AH-blog

no mirrors please, Follow The Rules