Subcategories

Total Motion Release - Tom Dalonzo-Baker

Posted By: ParRus
Total Motion Release - Tom Dalonzo-Baker

Total Motion Release - Tom Dalonzo-Baker
WEBRip | MP4 + PDF Guides | English | 640 x 360 | AVC ~1515 kbps | 29.970 fps
AAC | 103 Kbps | 44.1 KHz | 2 channels | ~50 hours | 31.3 GB
Genre: eLearning Video / Physical Therapy, Health, Rehabilitation

Are you in constant pain and looking for FAST results? Is one of your patients in constant pain and looking for FAST results? If so, then Total Motion Physical Therapy is for you. Our revolutionary pain relief system is used world wide. Not only has it been proven effective in severe cases, it also lasts. We're friendly and a relaxed environment when you enter the doors at Total Motion Physical Therapy.
Around 2002, Tom Dalonzo-Baker, MPT - had the initial ah-ha moment(s) about TMR. Gradually he began to look for ways to make the process quicker and easier to understand both for therapists and patients. After about 2 ½ years refining the system The FAB 5 (the foundation exercises) were finalized. The FAB 5 are the basic exercises and the basic format that allow people to fix themselves.
About Us

Tom Dalonzo-Baker, MPT is the founder & owner of Total Motion Physical Therapy. With multiple & diverse degrees, its safe to say he has a diverse education & a wide knowledge base. Chip Moseley, MPT, OCS, CSCS is Tom's right hand man playing the role of the lead therapist. Margaret Mitsock, PTA assists in the daily treatment of patients. Deanna Merritt keeps all the daily $$ activities rolling smoothly.


About Tom Dalonzo-Baker
Tom started his first private practice 5 months out of college. Within a year he had established 2 other clinics in North Carolina.

For over 10 years now Tom has shared the Total Motion Release (TMR) Method to over 3,000 clinicians around the world.

TMR was created to help clinicians provide a 1st of it's kind … simple, initially "weird", patient driven, quick …
full body assessment & treatment system.

Our TMR Online Platform is the tool that makes this all possible. Total Motion Release is also the first of it's kind TelePT Platform.

Tom resides in Raleigh, NC with his wife Sarah and their 6 children (Amelia, Thomas, Anna Claire, Nate,
Lindley Rose, & Sadie).

also You can look:

Gray Cook, Brett Jones & Ed Thomas - Club Swinging Essentials

Kettlebells From the Center - Dynami with Gray Cook & Brett Jones

Gray Cook - Secrets of Primitive Patterns (2 DVD-set)

Gray Cook - Athletic Body in Balance

Gray Cook - Secrets of Core Training: The Backside

The Certified Kettlebell-Functional Movement Specialist (CK-FMS) Home Study Course

Gray Cook - FMS: Applying the Model to Real Life Examples

Gray Cook - Secrets of the Shoulder

Movement Functional Movement Systems

and other: Rehabilitation-post

General
Complete name : 17 - TMR 2 Day 2 - Kneeling 2D.mp4
Format : MPEG-4
Format profile : Base Media
Codec ID : isom
File size : 204 MiB
Duration : 17mn 35s
Overall bit rate mode : Variable
Overall bit rate : 1 623 Kbps
Encoded date : UTC 2013-11-10 17:55:01
Tagged date : UTC 2013-11-10 17:55:01

Video
ID : 1
Format : AVC
Format/Info : Advanced Video Codec
Format profile : Main@L1.3
Format settings, CABAC : Yes
Format settings, ReFrames : 1 frame
Codec ID : avc1
Codec ID/Info : Advanced Video Coding
Duration : 17mn 35s
Bit rate : 1 515 Kbps
Width : 640 pixels
Height : 360 pixels
Display aspect ratio : 16:9
Frame rate mode : Constant
Frame rate : 29.970 fps
Color space : YUV
Chroma subsampling : 4:2:0
Bit depth : 8 bits
Scan type : Progressive
Bits/(Pixel*Frame) : 0.219
Stream size : 191 MiB (93%)
Encoded date : UTC 2013-11-10 17:55:01
Tagged date : UTC 2013-11-10 17:55:01

Audio
ID : 2
Format : AAC
Format/Info : Advanced Audio Codec
Format profile : LC
Codec ID : 40
Duration : 17mn 35s
Bit rate mode : Variable
Bit rate : 103 Kbps
Channel(s) : 2 channels
Channel positions : Front: L R
Sampling rate : 44.1 KHz
Compression mode : Lossy
Stream size : 13.0 MiB (6%)
Encoded date : UTC 2013-11-10 17:55:01
Tagged date : UTC 2013-11-10 17:55:01

Screenshots

Total Motion Release - Tom Dalonzo-Baker

Total Motion Release - Tom Dalonzo-Baker

Total Motion Release - Tom Dalonzo-Baker

Total Motion Release - Tom Dalonzo-Baker

Total Motion Release - Tom Dalonzo-Baker

Total Motion Release - Tom Dalonzo-Baker

Total Motion Release - Tom Dalonzo-Baker

Total Motion Release - Tom Dalonzo-Baker

Total Motion Release - Tom Dalonzo-Baker

Exclusive eLearning Videos ParRus-blogadd to bookmarks

Total Motion Release - Tom Dalonzo-Baker