Subcategories

Hale Dwoskin - The Sedona Method: Ultimate Freedom Program

Posted By: ParRus
Hale Dwoskin - The Sedona Method: Ultimate Freedom Program

Hale Dwoskin - The Sedona Method: Ultimate Freedom Program
WEBRip | English | MP4 + MP3 | 720 x 480 | AVC ~800 kbps | 29.970 fps
AAC 128 Kbps 48.0 KHz | 2 channels | 26:36:26 | 12.57 GB
Genre: eLearning Video / Self Improvement

Ultimate Freedom Transform Your Life, Dissolve Resistance The Ultimate Freedom Online Course will open you to the field of unlimited possibility that is shining in plain view simply waiting for you to awaken to its joyous beauty and wonder. This field, some people call this the field of dreams, is much more than that. It is beyond any dream or expectation yet allows for the ultimate fulfillment of all that matters. This field exists beyond the mind, beyond our hopes and dreams, beyond our concepts and beliefs and beyond any sense of limitation. This field at the same time gives life to all that appears.
Since it is already here, you do not need to achieve it, earn it, deserve it, understand it, find it, break through to it, or even know it’s there. You simply can awaken to this field in any moment. I will personally guide you to experience this field of unlimited possibilities.

As you leave the hassles and stresses and demands of your everyday life behind, you will experience:

* Dissolving Resistance and Surrendering to the Flow
* Tapping the Healing and Liberating Power of Love
* Seeing Through Your Core Limitations
* You Are Enough
* The Exquisiteness of Simply Being
* What is Beyond the Limitations of Time and Space
* Opening to The Wonder of Now
* …and Much More

As you explore this wonderful course, you will…

Discover what is actually here now, beyond all the mental noise
Learn how to dissolve even long-standing beliefs about yourself
How to experience a profound sense of quiet even when surrounded by noise
How to let go of the expectations that are preventing you from living fully and being happy
Discover what is here beyond the filters and spin of your mind
How the river of life is already carrying you through all situations
How intuitive knowingness and clear reason are always available to us in every situation
Learn what is beyond a quiet mind
Discover the power of welcoming what is

If you are ready to truly break free from all that is holding you back from living live fully, celebrating the amazing wonder that is already right here right now plus much more than can be put into words please order your course today.

You will be glad you did.

Price: 497$
More Info: Salepage

also You can find my other last: Self Improvement-posts

General
Complete name : Ultimate Freedom Video Session 12.mp4
Format : MPEG-4
Format profile : Base Media / Version 2
Codec ID : mp42 (mp42/isom/avc1)
File size : 712 MiB
Duration : 1 h 46 min
Overall bit rate mode : Variable
Overall bit rate : 933 kb/s
Encoded date : UTC 2012-10-11 21:40:11
Tagged date : UTC 2012-10-11 22:18:44
Writing application : HandBrake 0.9.8 2012071700

Video
ID : 1
Format : AVC
Format/Info : Advanced Video Codec
Format profile : Main@L3
Format settings : CABAC / 4 Ref Frames
Format settings, CABAC : Yes
Format settings, RefFrames : 4 frames
Codec ID : avc1
Codec ID/Info : Advanced Video Coding
Duration : 1 h 46 min
Bit rate : 800 kb/s
Width : 720 pixels
Height : 480 pixels
Display aspect ratio : 16:9
Original display aspect ratio : 16:9
Frame rate mode : Constant
Frame rate : 29.970 (30000/1001) FPS
Standard : NTSC
Color space : YUV
Chroma subsampling : 4:2:0
Bit depth : 8 bits
Scan type : Progressive
Bits/(Pixel*Frame) : 0.077
Stream size : 610 MiB (86%)
Writing library : x264 core 120
Encoding settings : cabac=1 / ref=4 / deblock=1:0:0 / analyse=0x1:0x111 / me=hex / subme=2 / psy=1 / psy_rd=1.00:0.00 / mixed_ref=1 / me_range=16 / chroma_me=1 / trellis=0 / 8x8dct=0 / cqm=0 / deadzone=21,11 / fast_pskip=1 / chroma_qp_offset=0 / threads=3 / sliced_threads=0 / nr=0 / decimate=1 / interlaced=0 / bluray_compat=0 / constrained_intra=0 / bframes=3 / b_pyramid=2 / b_adapt=1 / b_bias=0 / direct=1 / weightb=1 / open_gop=0 / weightp=1 / keyint=300 / keyint_min=30 / scenecut=40 / intra_refresh=0 / rc_lookahead=10 / rc=2pass / mbtree=1 / bitrate=800 / ratetol=1.0 / qcomp=0.60 / qpmin=3 / qpmax=69 / qpstep=4 / cplxblur=20.0 / qblur=0.5 / ip_ratio=1.40 / aq=1:1.00
Encoded date : UTC 2012-10-11 21:40:11
Tagged date : UTC 2012-10-11 22:18:37
Color range : Limited
Color primaries : BT.601 NTSC
Transfer characteristics : BT.709
Matrix coefficients : BT.601

Audio
ID : 2
Format : AAC
Format/Info : Advanced Audio Codec
Format profile : LC
Codec ID : mp4a-40-2
Duration : 1 h 46 min
Bit rate mode : Variable
Bit rate : 128 kb/s
Maximum bit rate : 170 kb/s
Channel(s) : 2 channels
Channel positions : Front: L R
Sampling rate : 48.0 kHz
Frame rate : 46.875 FPS (1024 SPF)
Compression mode : Lossy
Stream size : 97.6 MiB (14%)
Title : Stereo
Encoded date : UTC 2012-10-11 21:40:11
Tagged date : UTC 2012-10-11 22:18:37
Screenshots

Hale Dwoskin - The Sedona Method: Ultimate Freedom Program

Hale Dwoskin - The Sedona Method: Ultimate Freedom Program

Hale Dwoskin - The Sedona Method: Ultimate Freedom Program

Hale Dwoskin - The Sedona Method: Ultimate Freedom Program

Hale Dwoskin - The Sedona Method: Ultimate Freedom Program

Exclusive eLearning Videos ParRus-blogadd to bookmarks

Hale Dwoskin - The Sedona Method: Ultimate Freedom Program