Subcategories

Ultimate Piano Course (2017)

Posted By: ParRus
Ultimate Piano Course (2017)

Ultimate Piano Course (2017)
DVDRip | English | MP4 | 1920 x 1080 | AVC ~2819 kbps | 25 fps
AAC 256 Kbps 48.0 KHz | 2 channels | 07:24:00 | 8.18 GB
Genre: eLearning Video / Piano

Would you like to learn how to combine hands when playing piano? How to play by ear, play chords, play scales and compose music? How to read sheet music? How to learn a new song every day? And how to use piano chords to learn songs quicker and remember them better?
PGN Piano has over 185.000 subscribers on YouTube and is the Largest Piano Tutorial channel in Europe. Now presenting: The Ultimate Piano Course!

also You can find my other last: Piano Lessons-posts

General
Complete name : 2.4 Minor Scales.mp4
Format : MPEG-4
Format profile : Base Media / Version 2
Codec ID : mp42 (mp42/mp41/isom/avc1)
File size : 122 MiB
Duration : 5 min 32 s
Overall bit rate mode : Variable
Overall bit rate : 3 079 kb/s
Encoded date : UTC 2017-07-27 15:26:32
Tagged date : UTC 2017-07-27 15:26:32

Video
ID : 1
Format : AVC
Format/Info : Advanced Video Codec
Format profile : High@L4
Format settings : CABAC / 4 Ref Frames
Format settings, CABAC : Yes
Format settings, RefFrames : 4 frames
Codec ID : avc1
Codec ID/Info : Advanced Video Coding
Duration : 5 min 32 s
Bit rate : 2 819 kb/s
Width : 1 920 pixels
Height : 1 080 pixels
Display aspect ratio : 16:9
Frame rate mode : Constant
Frame rate : 25.000 FPS
Color space : YUV
Chroma subsampling : 4:2:0
Bit depth : 8 bits
Scan type : Progressive
Bits/(Pixel*Frame) : 0.054
Stream size : 112 MiB (92%)
Writing library : x264 core 150 r10 df79067
Encoding settings : cabac=1 / ref=4 / deblock=1:0:0 / analyse=0x3:0x113 / me=hex / subme=8 / psy=1 / psy_rd=1.00:0.00 / mixed_ref=1 / me_range=16 / chroma_me=1 / trellis=2 / 8x8dct=1 / cqm=0 / deadzone=21,11 / fast_pskip=1 / chroma_qp_offset=-2 / threads=34 / lookahead_threads=5 / sliced_threads=0 / nr=0 / decimate=1 / interlaced=0 / bluray_compat=0 / stitchable=1 / constrained_intra=0 / bframes=3 / b_pyramid=2 / b_adapt=1 / b_bias=0 / direct=3 / weightb=1 / open_gop=0 / weightp=2 / keyint=infinite / keyint_min=25 / scenecut=40 / intra_refresh=0 / rc_lookahead=50 / rc=crf / mbtree=1 / crf=20.0 / qcomp=0.60 / qpmin=5 / qpmax=69 / qpstep=4 / vbv_maxrate=5500 / vbv_bufsize=15000 / crf_max=0.0 / nal_hrd=none / filler=0 / ip_ratio=1.40 / aq=1:1.00
Encoded date : UTC 2017-07-27 15:26:32
Tagged date : UTC 2017-07-27 15:26:32
Color range : Limited
Color primaries : BT.709
Transfer characteristics : BT.709
Matrix coefficients : BT.709

Audio
ID : 2
Format : AAC
Format/Info : Advanced Audio Codec
Format profile : LC
Codec ID : mp4a-40-2
Duration : 5 min 32 s
Bit rate mode : Variable
Bit rate : 256 kb/s
Channel(s) : 2 channels
Channel positions : Front: L R
Sampling rate : 48.0 kHz
Frame rate : 46.875 FPS (1024 SPF)
Compression mode : Lossy
Stream size : 10.1 MiB (8%)
Encoded date : UTC 2017-07-27 15:26:32
Tagged date : UTC 2017-07-27 15:26:32
Screenshots

Ultimate Piano Course (2017)

Ultimate Piano Course (2017)

Ultimate Piano Course (2017)

Ultimate Piano Course (2017)

Ultimate Piano Course (2017)

Exclusive eLearning Videos ParRus-blogadd to bookmarks

Ultimate Piano Course (2017)