Subcategories
Please register here if you want to download anything!

If domain in your address bar is different from the list below
PLEASE LEAVE THAT SITE IMMEDIATELY
❗IT'S A DANGEROUS FAKE❗



Spicy Magazines for Men! ;-)

Jim Kwik – Unleash Your Brain

Posted By: ParRus
Jim Kwik – Unleash Your Brain

Jim Kwik – Unleash Your Brain
WEBRip | English | MP4 + MP3 + PDF Guide | 1920 x 1080 | AVC ~2862 Kbps | 25 fps
AAC | 116 Kbps | 44.1 KHz | 2 channels | ~9 hours | 12.7 GB
Genre: eLearning Video / Self Improvement

How To Unleash Your Superbrain With The Man Who Trains Hollywood Stars, Entrepreneurs, And Fortune 500 Companies. Do you want to learn information quickly and be able to remember it for years to come? With technology rapidly advancing, life-long learning is a convenient option with information available at your fingertips.
If you want to have a successful life, you have to skill up and expand your knowledge base. But trying to process such an insane amount of information every day seems impossible.

But the good news is your brain is a muscle and you can learn how to unleash your super brain. Essentially, the more you train your brain, the less overwhelmed you’ll feel and the faster you’ll learn.

And the faster you learn, the more edge you’ll have in creating a successful and fulfilling life for yourself.

Learn How To Unlock Your Hidden Potential
That’s why we’ve partnered with Jim Kwik, the author of Mindvalley’s Superbrain Quest.

Jim is one of the world’s well-renowned experts in speed-reading, memory improvement, brain performance, and accelerated learning.

The Superbrain Quest is an accelerated learning curriculum designed to activate your brain’s limitless potential. Join Master Mind Trainer Jim Kwik on a 30-day adventure towards a bulletproof memory, unshakeable focus, and superhuman productivity. Whether you’re a professional, entrepreneur, student, or just someone looking to unlock the full power of your mind - you’ll experience life-changing elevations in your career and personal growth as you shatter every inner limitation that has ever dared hold you back.

Is Your Brain Primed For The Next Stage In Human Evolution?
In the 21st century, information is king. There are more books, apps, courses, and media being published than ever before. Information technology is expanding at breakneck speed. And along with it comes increasingly higher expectations for the ones steering the ship: us.
But here’s the challenge: for most of us, school taught us what to learn and not how to learn. The result? Our brain’s raw processing power has been severely limited. We’re not thinking, remembering, and focusing anywhere near our real potential. And those of us who do have a tremendous advantage in this emerging new world.

Learning how to learn is known as meta learning. Jim Kwik is the world’s foremost expert in training you in meta learning. And in just 30 days, the exercises and mind shifts in this Quest will completely transform the way you absorb, process, and use information.
Welcome to the future of your brain.

What You’ll Learn
The 5 Pillars Of Your Superbrain
Jim combines today’s best neuroscience, speed learning, and peak performance techniques to upgrade your brain into a Superbrain in five key areas:

1. Supercharged Memory
Names, facts, birthdays, anniversaries, shopping lists, passwords - how much easier will your life be when you’re recalling all this information at the snap of a finger?

2. Supercharged Relationships
Use your Superbrain to connect better with people, and amplify your personality and charisma both at work and in your personal life.

3. Supercharged Processing Power
Eliminate brain fog from your Superbrain, so you can think smarter, decide faster, and focus better - no matter how young or old you are.

4. Supercharged Learning
Finish a book 3x faster (and remember every part of it). Learn a new language in record time. Master any new skill with ease. Become a better you in every way.

5. Supercharged Lifestyle
Banish inner resistance and self-sabotage from your life, so you can effortlessly adopt better habits. Eat healthier. Exercise better. See a better you in the mirror.
Elevate Your Learning Experience On The Revolutionary Mindvalley Quests Learning Platform
The Mindvalley Quests learning platform combines the power of community, daily micro-learning, and the world’s best teachers to give you a dramatically more immersive and transformational personal growth experience than ever before.

More Info: Salepage

also You can find other my useful: Self Improvement-posts

General
Complete name : Jim KDay 6 - Environments _ Killing ANTs.mp4
Format : MPEG-4
Format profile : Base Media
Codec ID : isom (isom/iso2/avc1/mp41)
File size : 158 MiB
Duration : 7 min 24 s
Overall bit rate mode : Variable
Overall bit rate : 2 983 kb/s

Xtra : WM/Director
IsTruncated : Yes

Video
ID : 1
Format : AVC
Format/Info : Advanced Video Codec
Format profile : Baseline@L1.3
Format settings : 1 Ref Frames
Format settings, CABAC : No
Format settings, RefFrames : 1 frame
Format settings, GOP : M=1, N=12
Codec ID : avc1
Codec ID/Info : Advanced Video Coding
Duration : 7 min 24 s
Bit rate : 2 862 kb/s
Width : 1 920 pixels
Height : 1 080 pixels
Display aspect ratio : 16:9
Frame rate mode : Constant
Frame rate : 25.000 FPS
Color space : YUV
Chroma subsampling : 4:2:0
Bit depth : 8 bits
Scan type : Progressive
Bits/(Pixel*Frame) : 0.055
Stream size : 152 MiB (96%)
Language : English
Encoded date : UTC 2018-12-19 04:16:47
Tagged date : UTC 2018-12-19 04:16:47
Menus : 3

Audio
ID : 2
Format : AAC
Format/Info : Advanced Audio Codec
Format profile : LC
Codec ID : mp4a-40-2
Duration : 7 min 24 s
Bit rate mode : Variable
Bit rate : 116 kb/s
Maximum bit rate : 224 kb/s
Channel(s) : 2 channels
Channel positions : Front: L R
Sampling rate : 44.1 kHz
Frame rate : 43.066 FPS (1024 SPF)
Compression mode : Lossy
Stream size : 6.15 MiB (4%)
Language : English
Encoded date : UTC 2018-12-19 04:16:47
Tagged date : UTC 2018-12-19 04:16:47

Menu
ID : 3
Codec ID : text
Duration : 7 min 24 s
Encoded date : UTC 2019-01-04 19:23:46
Tagged date : UTC 2019-01-04 19:23:46
Menu For : 1
00:00:00.000 : Chapter 1

Screenshots

Jim Kwik – Unleash Your Brain

Jim Kwik – Unleash Your Brain

Jim Kwik – Unleash Your Brain

Jim Kwik – Unleash Your Brain

Jim Kwik – Unleash Your Brain

Exclusive eLearning Videos ParRus-blogadd to bookmarks

Jim Kwik – Unleash Your Brain