Subcategories

Coursera - Useful Genetics Part I - University of British Columbia

Posted By: ParRus
Coursera - Useful Genetics Part I - University of British Columbia

Coursera - Useful Genetics Part I - University of British Columbia
WEBRip | English | MP4 + PDF slides | 960 x 540 | AVC ~59.1 kbps | 30 fps
AAC | 128 Kbps | 44.1 KHz | 2 channels | ~16 hours | 1.72 GB
Genre: eLearning Video / Biology & Life Sciences, Genetics

Learn how genes are inherited and how they affect important personal and societal issues. Genetics permeates every aspect of the 21st century, from our doctors' offices to our judicial systems. By the end of this course, you’ll be well prepared to deal with both today’s genetic issues and new questions that are sure to arise in the future.
This challenging but very rewarding course focuses on the genetics issues that impact our health and well-being, while providing the same rigorous examination of genetics principles as a college genetics course.

The course is taught in two parts. Part 1 consists of 6 modules followed by a final exam. You’ll learn how genes work and how the different versions we inherit affect our daily lives and our society. You’ll learn to evaluate predictions about health risk, why DNA fingerprinting is so powerful, and what analysis of your DNA does and doesn’t reveal.

What you'll learn:

Why our DNAs are so similar but our appearances are so different
How DNA differences affect gene functions
What personal genomics can and can’t tell us
Why cancer is usually caused by bad luck rather than bad decisions
How to analyze your ancestry, even back to the Neanderthals
How to communicate what you’ve learned to your family and community


Useful Genetics Part II by Rosemary Redfield

also You can watch my other last: Coursera-posts

General
Complete name : 5 - 9 - Lecture 3H - How genes are named (19_29).mp4
Format : MPEG-4
Format profile : Base Media
Codec ID : isom
File size : 27.2 MiB
Duration : 19mn 29s
Overall bit rate : 195 Kbps
Writing application : Lavf53.29.100

Video
ID : 1
Format : AVC
Format/Info : Advanced Video Codec
Format profile : High@L3.1
Format settings, CABAC : Yes
Format settings, ReFrames : 4 frames
Codec ID : avc1
Codec ID/Info : Advanced Video Coding
Duration : 19mn 29s
Bit rate : 58.8 Kbps
Width : 960 pixels
Height : 540 pixels
Display aspect ratio : 16:9
Frame rate mode : Constant
Frame rate : 30.000 fps
Color space : YUV
Chroma subsampling : 4:2:0
Bit depth : 8 bits
Scan type : Progressive
Bits/(Pixel*Frame) : 0.004
Stream size : 8.20 MiB (30%)
Writing library : x264 core 120 r2120 0c7dab9
Encoding settings : cabac=1 / ref=3 / deblock=1:0:0 / analyse=0x3:0x113 / me=hex / subme=7 / psy=1 / psy_rd=1.00:0.00 / mixed_ref=1 / me_range=16 / chroma_me=1 / trellis=1 / 8x8dct=1 / cqm=0 / deadzone=21,11 / fast_pskip=1 / chroma_qp_offset=-2 / threads=12 / sliced_threads=0 / nr=0 / decimate=1 / interlaced=0 / bluray_compat=0 / constrained_intra=0 / bframes=3 / b_pyramid=2 / b_adapt=1 / b_bias=0 / direct=1 / weightb=1 / open_gop=0 / weightp=2 / keyint=250 / keyint_min=25 / scenecut=40 / intra_refresh=0 / rc_lookahead=40 / rc=crf / mbtree=1 / crf=28.0 / qcomp=0.60 / qpmin=0 / qpmax=69 / qpstep=4 / ip_ratio=1.40 / aq=1:1.00

Audio
ID : 2
Format : AAC
Format/Info : Advanced Audio Codec
Format profile : LC
Codec ID : 40
Duration : 19mn 29s
Bit rate mode : Constant
Bit rate : 128 Kbps
Channel(s) : 2 channels
Channel positions : Front: L R
Sampling rate : 44.1 KHz
Compression mode : Lossy
Delay relative to video : -2ms
Stream size : 17.8 MiB (66%)
Screenshots

Coursera - Useful Genetics Part I - University of British Columbia

Coursera - Useful Genetics Part I - University of British Columbia

Coursera - Useful Genetics Part I - University of British Columbia

Coursera - Useful Genetics Part I - University of British Columbia

Coursera - Useful Genetics Part I - University of British Columbia

Coursera - Useful Genetics Part I - University of British Columbia

Coursera - Useful Genetics Part I - University of British Columbia

Coursera - Useful Genetics Part I - University of British Columbia

Exclusive eLearning Videos ParRus-blogadd to bookmarks

Coursera - Useful Genetics Part I - University of British Columbia