Subcategories

Coursera - Useful Genetics Part II by Rosemary Redfield - University of British Columbia

Posted By: ParRus
Coursera - Useful Genetics Part II by Rosemary Redfield - University of British Columbia

Coursera - Useful Genetics Part II by Rosemary Redfield
WEBRip | English | MP4 | 960 x 540 | AVC ~87.1 kbps | 29.970 fps
AAC | 64.2 Kbps | 44.1 KHz | 2 channels | ~16 hours | 1.29 GB
Genre: eLearning Video / Biology & Life Sciences, Genetics

This college-level course gives students a thorough understanding of gene function and inheritance, and enables them to apply this understanding to real-world issues, both personal and societal. This is Part 2 of a two-part course.
Who might want to take this course?

- People affected by or concerned about a genetic disease (either directly or in a family member)
- People interested in the genetic diversity of humans or other species
- People who have had (or are considering having) their genes or genomes analyzed by companies such as 23andMe
- People concerned about the public use of personal genetic information
- People interested in breeding animals or plants, or in in conservation of endangered species
- People interested in genealogy and ancestry analysis
- Science teachers
- Anyone interested in genetics but unable to enroll in university at this time

Useful Genetics Part I - University of British Columbia

also You can watch my other last: Coursera-posts

General
Complete name : 2 - Telomeres - October 15 2013 (602).mp4
Format : MPEG-4
Format profile : Base Media
Codec ID : isom
File size : 6.90 MiB
Duration : 6mn 2s
Overall bit rate : 160 Kbps
Writing application : Lavf55.10.100

Video
ID : 1
Format : AVC
Format/Info : Advanced Video Codec
Format profile : Main@L3.1
Format settings, CABAC : Yes
Format settings, ReFrames : 4 frames
Codec ID : avc1
Codec ID/Info : Advanced Video Coding
Duration : 6mn 2s
Bit rate : 87.1 Kbps
Width : 960 pixels
Height : 540 pixels
Display aspect ratio : 16:9
Frame rate mode : Constant
Frame rate : 29.970 fps
Color space : YUV
Chroma subsampling : 4:2:0
Bit depth : 8 bits
Scan type : Progressive
Bits/(Pixel*Frame) : 0.006
Stream size : 3.76 MiB (54%)
Writing library : x264 core 129 r2230 1cffe9f
Encoding settings : cabac=1 / ref=3 / deblock=1:0:0 / analyse=0x1:0x111 / me=hex / subme=7 / psy=1 / psy_rd=1.00:0.00 / mixed_ref=1 / me_range=16 / chroma_me=1 / trellis=1 / 8x8dct=0 / cqm=0 / deadzone=21,11 / fast_pskip=1 / chroma_qp_offset=-2 / threads=12 / lookahead_threads=2 / sliced_threads=0 / nr=0 / decimate=1 / interlaced=0 / bluray_compat=0 / constrained_intra=0 / bframes=3 / b_pyramid=2 / b_adapt=1 / b_bias=0 / direct=1 / weightb=1 / open_gop=0 / weightp=2 / keyint=250 / keyint_min=25 / scenecut=40 / intra_refresh=0 / rc_lookahead=40 / rc=crf / mbtree=1 / crf=28.0 / qcomp=0.60 / qpmin=0 / qpmax=69 / qpstep=4 / ip_ratio=1.40 / aq=1:1.00

Audio
ID : 2
Format : AAC
Format/Info : Advanced Audio Codec
Format profile : LC
Codec ID : 40
Duration : 6mn 2s
Bit rate mode : Constant
Bit rate : 64.2 Kbps
Channel(s) : 2 channels
Channel positions : Front: L R
Sampling rate : 44.1 KHz
Compression mode : Lossy
Delay relative to video : -800ms
Stream size : 2.77 MiB (40%)
Screenshots

Coursera - Useful Genetics Part II by Rosemary Redfield - University of British Columbia

Coursera - Useful Genetics Part II by Rosemary Redfield - University of British Columbia

Coursera - Useful Genetics Part II by Rosemary Redfield - University of British Columbia

Coursera - Useful Genetics Part II by Rosemary Redfield - University of British Columbia

Coursera - Useful Genetics Part II by Rosemary Redfield - University of British Columbia

Coursera - Useful Genetics Part II by Rosemary Redfield - University of British Columbia

Coursera - Useful Genetics Part II by Rosemary Redfield - University of British Columbia

Exclusive eLearning Videos ParRus-blogadd to bookmarks

Coursera - Useful Genetics Part II by Rosemary Redfield - University of British Columbia