Subcategories

Yoga Pulse System: Reshape Your Body & Transform Your Life (6 DVD Set)

Posted By: ParRus
Yoga Pulse System: Reshape Your Body & Transform Your Life (6 DVD Set)

Yoga Pulse System: Reshape Your Body & Transform Your Life
6xDVDRip | English | MKV | 720 x 480 | AVC ~5879 kbps | 29.970 fps
AC-3 | 192 Kbps | 48.0 KHz | 2 channels | 03:33:38 | 3.91 GB
Genre: eLearning Video / Yoga, Health

Reshape your body and transform your life with YogaPulseTM, an amazing 6 DVD set. The positions used in this system are effective, simple and fun, whether you are a long-term yoga practitioner or have just started! The YogaPulseTM System includes six DVDs, a Positions Chart and a grocery list. It also includes a Getting Started guide.
The DVDs:
YogaPulseTM Source will thoroughly sculpt your lower body (45 minutes)
YogaPulseTM Core will give you lean, sexy abs and improve your digestive system (45 minutes)
YogaPulseTM Heart will help you develop a beautiful chest and back, as well as a strong cardiovascular system (45 minutes)
YogaPulseTM Mind will connect your mind, body and spirit (45 minutes)
YogaPulseTM Dance will get your heart rate up and speed up your weight loss (45 minutes)
YogaPulseTM Take Ten includes three concentrated programs, to help you create exquisite abs, legs and buns! (three 10 minute programs)
Positions Chart a chart of all basic YogaPulseTM positions with photos and explanations to help you master the system easily.

YogaPulse is designed to help you reshape your body and transform your life by focusing on the way you move and the food you eat. YogaPulse™'s all–inclusive approach gives you the long, lean, yoga look you see on magazine covers. Certified yoga teacher and nutritional consultant Anastasia created YogaPulse™ to give you the transformational results you want by using safe, effective movements and an easy to follow food plan, so you can eat delicious and nutritious foods, and stay slim and healthy for life.

The YogaPulse method is based on the principle of seven major pulse zones. The theory of pulse zones was created, tested and developed by Anastasia. It has its roots in ancient yogic texts and in Eastern medicine. Pulse zones are seven specific areas of your body where energy is highly concentrated. The YogaPulse™ program stimulates these zones, unlocks the normally stagnant energy and creates the sense of overall wellbeing, strength, fitness, flexibility, weight loss and a deep inner peace. YogaPulse™ is a real combination of East meets West for the best in fitness.

YogaPulse brings the amazing benefits of yoga into every aspect of your life: slimming, strengthening, calming, health–enhancing, centering and even weight loss. This happens without investing a lot of time, without unpronounceable names of the poses, and without the need to be a contortionist. The positions used in YogaPulse™ are effective, simple and fun, whether you are a long–term yoga practitioner or have just started! YogaPulse™ is a true modern American yoga system. It is suitable for all people, all races, religions, shapes and sizes. YogaPulse™ can be practiced anytime and anywhere. You don't need any complicated fitness equipment to try this program. You can do it in the privacy of your own home, with a friend, a child or alone.

YogaPulse System includes six YogaPulse DVD programs of different lengths, Anastasia's Food Celebration booklet, a grocery list and a YogaPulse Positions Chart. It also includes a Get Started guide to make it easy for you to start the program. Through all aspects of YogaPulse™, including Anastasia's Food Celebration, you will reshape your body and transform your life.

also You can look my other last: Yoga-posts

General
Unique ID : 131531771277392477098738462585859985146 (0x62F419027BBA3D98BF3D97776281CEFA)
Complete name :Yogapulse - Disc 02.mkv
Format : Matroska
Format version : Version 2
File size : 1.97 GiB
Duration : 45mn 34s
Overall bit rate : 6 194 Kbps
Encoded date : UTC 2011-06-02 05:14:17
Writing application : MakeMKV v1.6.10 win(x64-release)
Writing library : libmakemkv v1.6.10 (1.2.0/1.1.0) win(x64-release)

Video
ID : 1
Format : MPEG Video
Format version : Version 2
Format profile : Main@Main
Format settings, BVOP : No
Format settings, Matrix : Custom
Codec ID : V_MPEG2
Codec ID/Info : MPEG 1 or 2 Video
Duration : 45mn 34s
Bit rate : 5 879 Kbps
Width : 720 pixels
Height : 480 pixels
Display aspect ratio : 4:3
Frame rate mode : Constant
Frame rate : 29.970 fps
Standard : NTSC
Color space : YUV
Chroma subsampling : 4:2:0
Bit depth : 8 bits
Scan type : Progressive
Scan order : Top Field First
Compression mode : Lossy
Bits/(Pixel*Frame) : 0.568
Time code of first frame : 00:00:00:00
Time code source : Group of pictures header
Stream size : 1.87 GiB (95%)
Language : English
Default : Yes
Forced : No
Color primaries : BT.601 NTSC
Transfer characteristics : BT.601
Matrix coefficients : BT.601

Audio
ID : 2
Format : AC-3
Format/Info : Audio Coding 3
Mode extension : CM (complete main)
Format settings, Endianness : Big
Codec ID : A_AC3
Duration : 45mn 34s
Bit rate mode : Constant
Bit rate : 192 Kbps
Channel(s) : 2 channels
Channel positions : Front: L R
Sampling rate : 48.0 KHz
Bit depth : 16 bits
Compression mode : Lossy
Delay relative to video : 33ms
Stream size : 62.6 MiB (3%)
Title : 2/0
Language : English
Default : Yes
Forced : No
Screenshots

Yoga Pulse System: Reshape Your Body & Transform Your Life (6 DVD Set)

Yoga Pulse System: Reshape Your Body & Transform Your Life (6 DVD Set)

Yoga Pulse System: Reshape Your Body & Transform Your Life (6 DVD Set)

Yoga Pulse System: Reshape Your Body & Transform Your Life (6 DVD Set)

Yoga Pulse System: Reshape Your Body & Transform Your Life (6 DVD Set)

Exclusive eLearning Videos ParRus-blogadd to bookmarks

Yoga Pulse System: Reshape Your Body & Transform Your Life (6 DVD Set)