Tags
Language
Tags

091 - Este Es Nuestro Tiempo 1986-1991 (2016) [Official Digital Download]

Posted By: HDV
091 - Este Es Nuestro Tiempo 1986-1991 (2016) [Official Digital Download]

091 - Este Es Nuestro Tiempo 1986-1991 (2016) [Remastered]
FLAC (tracks) 24-bit/44,1 kHz | Time - 161:40 minutes | 2,01 GB
Studio Master, Official Digital Download | Artwork: Front cover(s)

091 is a Spanish Rock band from Granada, active between 1982 and 1996, and resurfaced in 2015. Their music mixes critical and clumsy rock with the intellectual and literary character typical of the city. This remastered collection, titled "Este Es Nuestro Tiempo", features 4 albums that band released between 1986-1991.

The Spanish rock band 091 was formed after a group called Al-Dar, led by García Lapido, disbanded in the early '80s. The band's debut album, called El Cementerio de Automoviles, was released in 1984, followed by Mas de Cien Lobos in 1986. 091 was recognized as one of the major numbers from Granada's rock scene. On May 17 and 18, 1996, while performing in Macarena, 091 recorded a live album, the last one they issued. That same year writers Juan Enrique Gómez and Juan Jesús García published a book related to the group and its legacy…

091 - Este Es Nuestro Tiempo 1986-1991 (2016) [Official Digital Download]

091 - Más De Cien Lobos (1986/2016)
FLAC (tracks) 24-bit/44,1 kHz | Time - 40:59 minutes | 514 MB
Studio Master, Official Digital Download | Artwork: Front cover

Tracklist:

01 - Cuando Pierdo el Equilibrio
02 - Buen Día para Olvidar
03 - Escupir Contra el Viento
04 - Escenas de Guerra
05 - Me Siento Mal
06 - En la Calle
07 - Perderme en la Jungla
08 - Blues de Medianoche
09 - En Tu Locura
10 - Más de Cien Lobos
11 - Por Tí en la Oscuridad [Bonus Track]
12 - Sólo Es un Juego [Bonus Track]

Analyzed: 091 / Más De Cien Lobos (Remasterizado)
––––––––––––––––––––––––––––––––––––––––

DR Peak RMS Duration Track
––––––––––––––––––––––––––––––––––––––––
DR6 -0.20 dB -7.65 dB 3:39 01-Cuando Pierdo el Equilibrio
DR5 -0.20 dB -6.46 dB 3:17 02-Buen Día para Olvidar
DR5 -0.20 dB -7.44 dB 3:24 03-Escupir Contra el Viento
DR6 -0.20 dB -6.95 dB 4:11 04-Escenas de Guerra
DR5 -0.20 dB -6.40 dB 2:46 05-Me Siento Mal
DR6 -0.20 dB -6.68 dB 3:33 06-En la Calle
DR5 -0.20 dB -6.59 dB 2:56 07-Perderme en la Jungla
DR6 -0.20 dB -7.26 dB 3:49 08-Blues de Medianoche
DR6 -0.20 dB -7.11 dB 3:35 09-En Tu Locura
DR6 -0.20 dB -6.41 dB 3:03 10-Más de Cien Lobos
DR7 -0.20 dB -7.90 dB 3:35 11-Por Tí en la Oscuridad [Bonus Track]
DR7 -0.20 dB -7.59 dB 3:10 12-Sólo Es un Juego [Bonus Track]
––––––––––––––––––––––––––––––––––––––––

Number of tracks: 12
Official DR value: DR6

Samplerate: 44100 Hz
Channels: 2
Bits per sample: 24
Bitrate: 1705 kbps
Codec: FLAC
================================================================================



091 - Este Es Nuestro Tiempo 1986-1991 (2016) [Official Digital Download]

091 - Debajo De Las Piedras (1988/2016)
FLAC (tracks) 24-bit/44,1 kHz | Time - 38:26 minutes | 485 MB
Studio Master, Official Digital Download | Artwork: Front cover

Tracklist:

01 - Todo Lo Que Quiero Hacer
02 - Un Día de Lluvia
03 - Música para las Penas
04 - Demasiados Escalones
05 - Debajo de las Piedras
06 - La Torre de la Vela
07 - El Sur
08 - Solo Tú (Haces Que Me Sienta Bien)
09 - A Mí Con Esas
10 - Los Cuernos del Caracol
11 - Si Hay Tormenta…
12 - Solo Hago Sonar Mi Guitarra [Bonus Track]

Analyzed: 091 / Debajo De Las Piedras (Remasterizado)
––––––––––––––––––––––––––––––––––––––––

DR Peak RMS Duration Track
––––––––––––––––––––––––––––––––––––––––
DR6 -0.20 dB -7.55 dB 3:57 01-Todo Lo Que Quiero Hacer
DR6 -0.20 dB -7.11 dB 3:49 02-Un Día de Lluvia
DR6 -0.20 dB -7.50 dB 3:06 03-Música para las Penas
DR6 -0.20 dB -8.27 dB 4:08 04-Demasiados Escalones
DR6 -0.20 dB -7.54 dB 2:55 05-Debajo de las Piedras
DR6 -0.20 dB -7.77 dB 3:05 06-La Torre de la Vela
DR6 -0.20 dB -7.46 dB 3:41 07-El Sur
DR7 -0.20 dB -8.06 dB 2:47 08-Solo Tú (Haces Que Me Sienta Bien)
DR6 -0.20 dB -8.04 dB 2:42 09-A Mí Con Esas
DR6 -0.20 dB -7.88 dB 3:33 10-Los Cuernos del Caracol
DR6 -0.20 dB -7.92 dB 2:06 11-Si Hay Tormenta…
DR7 -0.20 dB -8.24 dB 2:38 12-Solo Hago Sonar Mi Guitarra [Bonus Track]
––––––––––––––––––––––––––––––––––––––––

Number of tracks: 12
Official DR value: DR6

Samplerate: 44100 Hz
Channels: 2
Bits per sample: 24
Bitrate: 1680 kbps
Codec: FLAC
================================================================================



091 - Este Es Nuestro Tiempo 1986-1991 (2016) [Official Digital Download]

091 - Doce Canciones Sin Piedad (1989/2016)
FLAC (tracks) 24-bit/44,1 kHz | Time - 38:49 minutes | 501 MB
Studio Master, Official Digital Download | Artwork: Front cover

Tracklist:

01 - Cartas en la Manga
02 - Confusión
03 - En Tus Ojos
04 - El Deseo y el Fuego
05 - Nadie Encuentra Lo Que Busca
06 - En el Laberinto
07 - Que Fue del Siglo XX
08 - Esta Noche
09 - Al Borde del Abismo
10 - Nada es Real
11 - El Trago Más Amargo
12 - Carne Cruda

Analyzed: 091 / Doce Canciones Sin Piedad (Remasterizado)
––––––––––––––––––––––––––––––––––––––––

DR Peak RMS Duration Track
––––––––––––––––––––––––––––––––––––––––
DR6 -0.20 dB -7.84 dB 3:29 01-Cartas en la Manga
DR5 -0.20 dB -6.31 dB 3:15 02-Confusión
DR5 -0.20 dB -6.28 dB 2:47 03-En Tus Ojos
DR4 -0.20 dB -5.39 dB 3:22 04-El Deseo y el Fuego
DR5 -0.20 dB -7.34 dB 2:38 05-Nadie Encuentra Lo Que Busca
DR5 -0.20 dB -6.98 dB 3:57 06-En el Laberinto
DR4 -0.20 dB -4.98 dB 2:58 07-Que Fue del Siglo XX
DR4 -0.20 dB -5.10 dB 3:03 08-Esta Noche
DR5 -0.20 dB -6.49 dB 3:26 09-Al Borde del Abismo
DR6 -0.20 dB -7.11 dB 3:13 10-Nada es Real
DR6 -0.20 dB -6.84 dB 3:24 11-El Trago Más Amargo
DR6 -0.20 dB -7.72 dB 3:19 12-Carne Cruda
––––––––––––––––––––––––––––––––––––––––

Number of tracks: 12
Official DR value: DR5

Samplerate: 44100 Hz
Channels: 2
Bits per sample: 24
Bitrate: 1719 kbps
Codec: FLAC
================================================================================



091 - Este Es Nuestro Tiempo 1986-1991 (2016) [Official Digital Download]

091 - El Baile De La Desesperación (1991/2016)
FLAC (tracks) 24-bit/44,1 kHz | Time - 43:26 minutes | 547 MB
Studio Master, Official Digital Download | Artwork: Front cover

Tracklist:

01 - La Vida Que Mala Es
02 - Este Es Nuestro Tiempo
03 - San Martin
04 - Corazón Malherido
05 - La Canción del Espantapájaros
06 - Espejismo No. 7
07 - El Baile de la Desesperación
08 - El Lado Oscuro de las Cosas
09 - Un Camino Equivocado
10 - Un Día Cualquiera
11 - Atrás

Analyzed: 091 / El Baile De La Desesperación (Remasterizado)
––––––––––––––––––––––––––––––––––––––––

DR Peak RMS Duration Track
––––––––––––––––––––––––––––––––––––––––
DR6 -0.20 dB -7.57 dB 4:07 01-La Vida Que Mala Es
DR6 -0.20 dB -6.94 dB 4:10 02-Este Es Nuestro Tiempo
DR6 -0.20 dB -6.73 dB 3:07 03-San Martin
DR7 -0.20 dB -8.06 dB 4:17 04-Corazón Malherido
DR7 -0.20 dB -7.57 dB 3:30 05-La Canción del Espantapájaros
DR6 -0.20 dB -7.25 dB 3:37 06-Espejismo No. 7
DR6 -0.20 dB -7.69 dB 4:20 07-El Baile de la Desesperación
DR6 -0.20 dB -7.53 dB 3:28 08-El Lado Oscuro de las Cosas
DR6 -0.20 dB -7.13 dB 4:06 09-Un Camino Equivocado
DR10 -0.20 dB -12.62 dB 3:52 10-Un Día Cualquiera
DR6 -0.20 dB -7.35 dB 4:52 11-Atrás
––––––––––––––––––––––––––––––––––––––––

Number of tracks: 11
Official DR value: DR7

Samplerate: 44100 Hz
Channels: 2
Bits per sample: 24
Bitrate: 1667 kbps
Codec: FLAC
================================================================================


Thanks to the Original customer!