10cc - Deceptive Bends (1977) [Japanese SHM-SACD 2014] PS3 ISO + Hi-Res FLAC

Posted By: HDAtall
10cc - Deceptive Bends (1977) [Japanese SHM-SACD 2014] PS3 ISO + Hi-Res FLAC

10cc - Deceptive Bends (1977) [Japanese SHM-SACD 2014]
PS3 Rip | SACD ISO | DSD64 2.0 > 1-bit/2.8224 MHz | 51:22 minutes | Scans included | 1,51 GB
or FLAC 2.0(converted with foobar2000 to tracks) 24bit/96 kHz | Full Scans included | 1,23 GB

Deceptive Bends is the fifth studio album by rock band 10cc, released in 1977. The departure of Kevin Godley and Lol Creme in 1976 to form Godley & Creme almost ended 10cc. However, Eric Stewart and Graham Gouldman continued to run the band with the assistance of drummer Paul Burgess who already worked with 10cc acting as second drummer to Kevin Godley on tour. The first single taken from the album, "The Things We Do for Love", reached No. 6 in the UK Singles Chart, No. 5 on the Billboard Hot 100, and No. 1 in Canada. The album was reisued and remastered on CD in 1997 with b-sides as bonus tracks.

When Kevin Godley and Lol Creme left 10cc in 1976 to pursue a solo career, many thought it was the death knell for the group. However, Eric Stewart and Graham Gouldman kept the group alive as a duo (with the assistance of percussionist Paul Burgess) and turned in a surprisingly solid album with 1977's Deceptive Bends. It may lack the devil-may-care wackiness that popped up on previous 10cc albums, but it makes up for it by crafting a series of lush, catchy pop songs that are witty in their own right. Deceptive Bends also produced a pair of notable hits for the group: "Good Morning Judge" told the comical tale of a career criminal over a hook-laden, surprisingly funky pop backing while "The Things We Do for Love" was an irresistible Beatles pastiche that showcased 10cc's mastery of pop vocal harmonies. "People in Love," a surprisingly straightforward ballad built on a gorgeous string arrangement, also became a modest chart success. The remainder of the material doesn't stand out as sharply as these hits, but each of the tracks offers up plenty of naggingly catchy pop hooks, oodles of catchy riffs, and surprising twists in their arrangements. Highlights among the non-hit tracks include "Marriage Bureau Rendezvous," a satire of dating services set to a lilting soft rock melody, and "You've Got a Cold," a portrait of illness-influenced misery set to a percolating pop melody. The only place where Deceptive Bends slips is on "Feel the Benefit," the lengthy medley that closes the album. Its excessive length and hazy lyrics make it less satisfying than the album's shorter tunes, but it is kept afloat by a catchy, mock-Spanish midsection and some lovely string arrangements. All in all, Deceptive Bends is the finest achievement of 10cc's post-Godley and Creme lineup and well worth a spin for anyone who enjoyed Sheet Music or The Original Soundtrack.

Tracklist:

01. Good Morning Judge
02. The Things We Do For Love
03. Marriage Bureau Rendezvous
04. People In Love
05. Modern Man Blues
06. Honeymoon With B Troop
07. I Bought A Flat Guitar Tutor
08. You've Got A Cold
09. Feel The Benefit: Reminisce And Speculate / "A" Latin Break / Feel The Benefit
10. Hot To Trot
11. Don't Squeeze Me Like Toothpaste
12. I'm So Laid Back, I'm Laid Out

foobar2000 1.4.3 / Dynamic Range Meter 1.1.1

––––––––––––––––––––––––––––––––––––––––
Analyzed: 10cc / Deceptive Bends
––––––––––––––––––––––––––––––––––––––––

DR Peak RMS Duration Track
––––––––––––––––––––––––––––––––––––––––
DR11 -4.28 dB -18.44 dB 2:56 01-Good Morning Judge
DR11 -5.16 dB -19.01 dB 3:31 02-The Things We Do For Love
DR13 -5.12 dB -20.82 dB 4:04 03-Marriage Bureau Rendezvous
DR12 -5.36 dB -21.12 dB 3:45 04-People In Love
DR12 -4.29 dB -19.77 dB 5:36 05-Modern Man Blues
DR12 -4.69 dB -19.06 dB 2:47 06-Honeymoon With B Troop
DR15 -4.20 dB -22.68 dB 1:45 07-I Bought A Flat Guitar Tutor
DR12 -3.56 dB -18.81 dB 3:40 08-You've Got A Cold
DR11 -3.97 dB -19.03 dB 11:29 09-Feel The Benefit: Reminisce And Speculate - "A" Latin Break - Feel The Bnefit
DR11 -6.32 dB -18.29 dB 4:27 10-Hot To Trot
DR12 -6.46 dB -20.67 dB 3:35 11-Don't Squeeze Me Like Toothpaste
DR11 -6.29 dB -18.78 dB 3:47 12-I'm So Laid Back, I'm Laid Out
––––––––––––––––––––––––––––––––––––––––

Number of tracks: 12
Official DR value: DR12

Samplerate: 2822400 Hz / PCM Samplerate: 176400 Hz
Channels: 2
Bits per sample: 1
Bitrate: 5645 kbps
Codec: DSD64


Thanks to PS³SACD!
Uncompressed SACD ISO size > 2,08 GB
>