Bruce Springsteen & The E Street Band - 1977-02-08 - Auditorium Theatre, Rochester, NY (2017) [24/192]

Posted By: SERTiL
Bruce Springsteen & The E Street Band - 1977-02-08 - Auditorium Theatre, Rochester, NY (2017) [24/192]

Bruce Springsteen & The E Street Band - 1977-02-08 - Auditorium Theatre, Rochester, NY (2017)
FLAC (tracks) 24-bit/192 kHz | Time - 112:39 minutes | 3.06 GB
live.brucespringsteen.net, Official Digital Download | Artwork: Front Cover

The first-ever soundboard recordings to surface from the ‘77 tour offer a trove significant performances from this under-documented transitional era, including early prototypes of “Something In The Night,” “Rendezvous” and “The Promise”; the unreleased original “Action In The Streets” featuring the Miami Horns; and a mesmerizing expanded version of “Backstreets.”

Tracklist:

Set One:
01. Something in the Night
02. Rendezvous
03. Spirit in the Night
04. It's My Life
05. Thunder Road
06. Mona
07. She's the One
08. Tenth Avenue Freeze-Out
09. Action In The Streets
10. Backstreets

Set Two:
01. Jungleland
02. Rosalita (Come Out Tonight)
03. 4th of July, Asbury Park (Sandy)
04. Raise Your Hand
05. The Promise
06. Born to Run

Personnel:
Bruce Springsteen – Lead vocal, guitar, harmonica, piano;
Roy Bittan – Piano, backing vocal;
Clarence Clemons – Saxophones, percussion, backing vocal;
Garry Tallent - Bass;
Stevie Van Zandt - Guitar, backing vocal;
Danny Federici - Organ, glockenspiel, accordion;
Max Weinberg – Drums.

Miami Horns:
Ed De Palma - Saxophone;
John Binkley - Trumpet;
Steve Paraczky - Trumpet, flugelhorn;
Dennis Orlock - Trombone.

foobar2000 1.3.7 / Dynamic Range Meter 1.1.1
log date: 2017-12-23 18:15:35

––––––––––––––––––––––––––––––––––––––––
Analyzed: Bruce Springsteen & The E Street Band / 1977/02/08 Rochester, NY
––––––––––––––––––––––––––––––––––––––––

DR Peak RMS Duration Track
––––––––––––––––––––––––––––––––––––––––
DR13 -0.81 dB -18.65 dB 2:09 01-Something in the Night
DR13 -0.10 dB -14.91 dB 3:31 02-Rendezvous
DR14 -0.96 dB -17.92 dB 7:32 03-Spirit in the Night
DR13 -0.33 dB -19.95 dB 14:23 04-It's My Life
DR12 -0.98 dB -16.35 dB 6:33 05-Thunder Road
DR13 -4.19 dB -21.76 dB 3:28 06-Mona
DR12 -0.97 dB -15.25 dB 5:33 07-She's the One
DR13 -1.58 dB -17.61 dB 3:43 08-Tenth Avenue Freeze-Out
DR13 -0.71 dB -17.47 dB 5:51 09-Action In The Streets
DR13 -1.55 dB -17.68 dB 10:58 10-Backstreets
DR14 -1.00 dB -20.44 dB 12:19 01-Jungleland
DR12 -1.19 dB -16.37 dB 13:56 02-Rosalita (Come Out Tonight)
DR13 -3.36 dB -20.57 dB 7:42 03-4th of July, Asbury Park (Sandy)
DR13 -2.13 dB -17.54 dB 4:24 04-Raise Your Hand
DR15 -11.59 dB -32.28 dB 5:26 05-The Promise
DR9 -1.87 dB -13.56 dB 5:16 06-Born to Run
––––––––––––––––––––––––––––––––––––––––

Number of tracks: 16
Official DR value: DR13

Samplerate: 192000 Hz
Channels: 2
Bits per sample: 24
Bitrate: 4237 kbps
Codec: FLAC
================================================================================


Thanks to the Original customer.