Bruce Springsteen & The E Street Band - 2012-03-09 Apollo Theater, New York City, NY, USA (2014) [Official Digital Download]

Posted By: SERTiL
Bruce Springsteen & The E Street Band - 2012-03-09 Apollo Theater, New York City, NY, USA (2014) [Official Digital Download]

Bruce Springsteen & The E Street Band - 2012-03-09 Apollo Theater, New York City, NY, USA (2014)
FLAC (tracks) 24-bit/48 kHz | Time - 131:29 minutes | 1.62 GB
live.brucespringsteen.net, Official Digital Download | Artwork: Front Cover

The show was recorded at the Apollo Theater in New York City on March 9, 2012 and was a warm-up date for the band's upcoming Wrecking Ball World Tour. The show also marked the first full performance for Springsteen and the E Street Band following the death of Clarence Clemons and the first to feature the newly assembled nine piece backing band that Springsteen would use on his upcoming tours. The performance was also aired live on E Street Radio.

Tracklist:
01 intro
02 We Take Care Of Our Own
03 Wrecking Ball
04 Badlands
05 Death To My Hometown
06 My City Of Ruins
07 The E Street Shuffle
08 Jack Of All Trades
09 Shackled And Drawn
10 Waitin' On A Sunny Day
11 The Promised Land
12 Mansion On The Hill
13 The Way You Do The Things You Do
14 634-5789 (Soulsville, U.S.A.)
15 The Rising
16 We Are Alive
17 Thunder Road
18 Rocky Ground
19 Land Of Hope And Dreams
20 Tenth Avenue Freeze-Out
21 Hold On, I'm Coming

Personnel:
Bruce Springsteen - vocals, guitar

the E Street Band:
Roy Bittan - piano
Nils Lofgren - guitar, electric banjo, vocals
Patti Scialfa - guitar, vocals
Garry W. Tallent - bass
Steve Van Zandt - guitar, vocals
Max Weinberg - drums

with
Soozie Tyrell - violin, vocals
Charlie Giordano - keyboards
Cindy Mizelle - vocals
Curtis King - vocals
Clark Gayton - trombone, tuba
Curt Ramm - trumpet
Barry Danielian - trumpet
Ed Manion - saxophone
Jake Clemons - saxophone
Michelle Moore - vocals on "Rocky Ground"

foobar2000 1.3.7 / Dynamic Range Meter 1.1.1
log date: 2018-02-28 13:55:39

––––––––––––––––––––––––––––––––––––––––
Analyzed: Bruce Springsteen / 2012-03-09 Apollo Theatre (24/48)
––––––––––––––––––––––––––––––––––––––––

DR Peak RMS Duration Track
––––––––––––––––––––––––––––––––––––––––
DR11 -3.39 dB -22.03 dB 1:09 01-Opening Applause
DR9 -0.10 dB -9.68 dB 1:07 02-Bruce Introduction
DR7 -0.08 dB -8.47 dB 4:28 03-We Take Care Of Our Own
DR7 0.00 dB -9.38 dB 6:07 04-Wrecking Ball
DR6 -0.08 dB -7.75 dB 5:56 05-Badlands
DR7 -0.07 dB -8.81 dB 4:09 06-Death To My Hometown
DR7 -0.08 dB -10.88 dB 12:18 07-My City Of Ruins
DR15 -0.12 dB -20.36 dB 0:47 08-Talking Intro To The E Street Shuffle
DR7 -0.08 dB -8.87 dB 7:52 09-The E Street Shuffle
DR9 -0.09 dB -13.49 dB 6:13 10-Jack Of All Trades
DR7 -0.07 dB -9.79 dB 6:23 11-Shackled And Drawn
DR8 -0.06 dB -8.80 dB 5:27 12-Waitin' On A Sunny Day
DR7 -0.08 dB -9.00 dB 6:24 13-The Promised Land
DR16 -3.17 dB -25.74 dB 1:33 14-Talking Intro To Mansion On The Hill
DR15 -3.32 dB -23.14 dB 4:28 15-Mansion On The Hill
DR14 -0.10 dB -17.73 dB 3:31 16-Intro To The Way You Do The Things You Do
DR7 -0.08 dB -8.55 dB 8:10 17-The Way You Do The Things You Do
DR7 -0.08 dB -9.50 dB 5:10 18-The Rising
DR8 -0.09 dB -11.46 dB 6:07 19-We Are Alive
DR7 -0.08 dB -10.12 dB 7:12 20-Thunder Road
DR16 -2.96 dB -26.08 dB 1:16 21-Talking Intro To Rocky Ground
DR9 -0.09 dB -13.30 dB 6:40 22-Rocky Ground
DR7 -0.08 dB -8.50 dB 8:58 23-Land Of Hope And Dreams People Get Ready
DR7 -0.08 dB -8.80 dB 6:33 24-10th Avenue Freeze-Out
DR7 -0.08 dB -8.96 dB 3:43 25-Hold On, I'M Coming
––––––––––––––––––––––––––––––––––––––––

Number of tracks: 25
Official DR value: DR9

Samplerate: 48000 Hz
Channels: 2
Bits per sample: 24
Bitrate: 1859 kbps
Codec: FLAC
================================================================================


Thanks to the Original customer.