2xHD - Audiophile Speaker Set-Up (2018) [DSD128 + Hi-Res FLAC]

Posted By: HDV
2xHD - Audiophile Speaker Set-Up (2018) [DSD128 + Hi-Res FLAC]

2xHD - Audiophile Speaker Set-Up (2018)
DSD128 (.dsf) 1 bit/5,6 MHz | Time - 113:58 minutes | 4,93 GB
FLAC (tracks) 24-bit/88,2 kHz | Time - 113:58 minutes | 1,92 GB
Studio Master, Official Digital Download | Artwork: Digital booklet

Новый аудиофильский альбом для тестирования акустических систем «Audiophile Speakers Test» от 2xHD наконец увидел свет. В нем содержатся 114 минут музыки, звуковых сэмплов и англоязычных советов по настройке колонок. Новинка поможет настроить аудиосистему и «добиться от нее совершенного звучания». В альбоме предусмотрены треки с широким динамическим диапазоном (от 20 Гц до 50 кГц), которые позволяют проверить расстановку акустики. Также в конце альбома находятся записи, призванные оценить максимальную басовую отдачу системы и помочь выбрать оптимальное расположение колонок по этому параметру. Альбом доступен в DSD и PCM. В комплект также входит 61-страничный буклет с рекомендациями по расстановке и настройке аудиосистемы, и со списком композиций в альбоме.

This album was created to help the audiophile - as well as the neophyte - find the best placement for installation of their speakers in order to obtain optimum performance within their personal parameters. With over 115 minutes of music, sonic examples and instructions, this companion to the best-selling album 2xHD Audiophile Hi- Res System Test will help you set up your speakers for an ultimate listening experience.

The album includes 13 tracks of spoken instructions for speaker placement and tweaking which are also reproduced in the accompanying 61 page booklet with colorful, helpful illustrations. The other 56 tracks contain music and sonic examples to use for judging the progress of the placement, as well as a good dose of music tracks for listening pleasure. This album is a must for all.

Tracklist:

01 - Audiophile Speakers Test Presentation
02 - The Pink Panther
03 - Everybody Loves Somebody
04 - Story
05 - Very Early
06 - Good Morning Heartache
07 - Jazz Session
08 - Greek Tycoon: Bouzouki Music
09 - Cello Suite (excerpt)
10 - String Quartet in G Minor (excerpt)
11 - Concert Piano
12 - J'entend la chanson des filles
13 - Brandenburg Concerto No. 1 in F Major, BWV 1046 (excerpt)
14 - Trumpet Solo
15 - Lieder Recital
16 - Harp
17 - Cello Sonata, Op. 25, No. 3 (excerpt)
18 - Guitar
19 - Bassoon: Bassoon 1
20 - Bassoon: Bassoon 2
21 - Violin
22 - Duduk
23 - Bawu
24 - Trumpet
25 - Flugelhorn
26 - Violin Concerto (excerpt)
27 - Romeo and Juliet Suite No. 1, Op. 64bis: Dance of the Knights
28 - Orchestra Excerpt
29 - Pictures at an Exhibition (arr. for orchestra): Pictures at an Exibition (excerpt)
30 - Le sacre du printemps (The Rite of Spring) (excerpt)
31 - Organ Music
32 - Extreme Dynamics
33 - Extreme Dynamics: Percussion 1
34 - Extreme Dynamics: World Music 1
35 - Extreme Dynamics: World Music 2
36 - Extreme Dynamics: Percussion 2
37 - Extreme Dynamics: Percussion 3
38 - Extreme Dynamics: Percussion 4
39 - Extreme Dynamics: Percussion 5
40 - Extreme Dynamics: Percussion 6
41 - Extreme Dynamics: Percussion 7
42 - Instructions for Speaker Placement: STEP 1. BASS
43 - Instructions for Speaker Placement: Djembe: extreme bass
44 - Instructions for Speaker Placement: Octobass: 28Hz, 56Hz
45 - Instructions for Speaker Placement: Octobass: 42Hz, 84Hz
46 - Instructions for Speaker Placement: Octobass: 28Hz to 224Hz
47 - Instructions for Speaker Placement: Octobass: 36Hz, 56Hz,112Hz, 224Hz
48 - Instructions for Speaker Placement: STEP 2. Toe-in
49 - Instructions for Speaker Placement: STEP 3. Levelling
50 - Instructions for Speaker Placement: Angle
51 - Instructions for Speaker Placement: STEP 4. Subwoofer Placement and Phasing
52 - Instructions for Speaker Placement: Crossover Setting
53 - Instructions for Speaker Placement: Subwoofer Second Option
54 - Instructions for Speaker Placement: STEP 5. Corner Treatment and Imaging
55 - Instructions for Speaker Placement: Corner Absorber
56 - Instructions for Speaker Placement: Room Challenges
57 - Precise Location and Depth of Field
58 - Precise Location and Depth of Field: Center, 8 ft.
59 - Precise Location and Depth of Field: Mid left, 11 ft.
60 - Precise Location and Depth of Field: Left, 18 ft.
61 - Precise Location and Depth of Field: Mid right, 11 ft.
62 - Precise Location and Depth of Field: Right, 18 ft.
63 - Precise Location and Depth of Field: Left, 30 ft.
64 - Precise Location and Depth of Field: Mid left, 28 ft.
65 - Precise Location and Depth of Field: Center, 28 ft.
66 - Precise Location and Depth of Field: Mid right, 28 ft.
67 - Precise Location and Depth of Field: Right, 30 ft.
68 - Precise Location and Depth of Field: Octobass recording
69 - Precise Location and Depth of Field: 2xHD Audiophile High res system test album

2xHD was created by producer/studio owner André Perry and audiophile sound engineer René Laflamme.

Analyzed: Various Artists / Audiophile Speaker Set-Up
––––––––––––––––––––––––––––––––––––––––

DR Peak RMS Duration Track
––––––––––––––––––––––––––––––––––––––––
DR17 -6.07 dB -29.34 dB 0:59 01-Audiophile Speakers Test Presentation
DR15 -7.91 dB -28.34 dB 3:54 02-The Pink Panther
DR12 -10.11 dB -25.54 dB 4:24 03-Everybody Loves Somebody
DR15 -6.10 dB -25.44 dB 4:47 04-Story
DR11 -7.97 dB -22.03 dB 5:14 05-Very Early
DR12 -6.98 dB -22.62 dB 3:42 06-Good Morning Heartache
DR12 -8.09 dB -23.82 dB 3:48 07-Jazz Session
DR15 -13.21 dB -32.91 dB 3:14 08-Greek Tycoon: Bouzouki Music
DR14 -15.21 dB -32.67 dB 2:28 09-Cello Suite (excerpt)
DR13 -13.65 dB -31.37 dB 3:46 10-String Quartet in G Minor (excerpt)
DR9 -12.81 dB -27.42 dB 2:18 11-Concert Piano
DR13 -9.42 dB -27.99 dB 1:12 12-J'entend la chanson des filles
DR11 -17.11 dB -32.65 dB 5:28 13-Brandenburg Concerto No. 1 in F Major, BWV 1046 (excerpt)
DR11 -14.54 dB -30.39 dB 1:28 14-Trumpet Solo
DR12 -13.44 dB -29.17 dB 2:22 15-Lieder Recital
DR11 -13.91 dB -29.14 dB 3:36 16-Harp
DR12 -12.98 dB -29.37 dB 1:41 17-Cello Sonata, Op. 25, No. 3 (excerpt)
DR12 -16.70 dB -34.88 dB 1:11 18-Guitar
DR10 -13.45 dB -26.84 dB 0:23 19-Bassoon: Bassoon 1
DR7 -13.11 dB -25.15 dB 0:40 20-Bassoon: Bassoon 2
DR13 -11.39 dB -29.70 dB 2:01 21-Violin
DR8 -21.33 dB -34.81 dB 0:59 22-Duduk
DR6 -22.24 dB -32.12 dB 0:53 23-Bawu
DR13 -15.11 dB -33.54 dB 0:46 24-Trumpet
DR11 -16.18 dB -33.48 dB 1:07 25-Flugelhorn
DR16 -10.41 dB -33.08 dB 6:43 26-Violin Concerto (excerpt)
DR14 -6.65 dB -30.83 dB 2:09 27-Romeo and Juliet Suite No. 1, Op. 64bis: Dance of the Knights
DR10 -6.52 dB -24.21 dB 0:45 28-Orchestra Excerpt
DR12 -8.06 dB -23.58 dB 1:14 29-Pictures at an Exhibition (arr. for orchestra): Pictures at an Exibition (excerpt)
DR11 -9.17 dB -25.35 dB 4:59 30-Le sacre du printemps (The Rite of Spring) (excerpt)
DR9 -21.66 dB -34.06 dB 1:30 31-Organ Music
DR12 -13.92 dB -28.91 dB 0:39 32-Extreme Dynamics
DR15 -6.11 dB -28.07 dB 2:39 33-Extreme Dynamics: Percussion 1
DR12 -6.09 dB -27.12 dB 1:05 34-Extreme Dynamics: World Music 1
DR10 -7.53 dB -21.38 dB 1:02 35-Extreme Dynamics: World Music 2
DR14 -6.26 dB -25.15 dB 1:47 36-Extreme Dynamics: Percussion 2
DR12 -6.12 dB -23.58 dB 1:09 37-Extreme Dynamics: Percussion 3
DR12 -19.59 dB -45.04 dB 0:41 38-Extreme Dynamics: Percussion 4
DR17 -10.00 dB -32.20 dB 1:39 39-Extreme Dynamics: Percussion 5
DR12 -7.66 dB -23.64 dB 1:05 40-Extreme Dynamics: Percussion 6
DR13 -6.10 dB -21.09 dB 1:17 41-Extreme Dynamics: Percussion 7
DR14 -11.74 dB -28.17 dB 2:07 42-Instructions for Speaker Placement: STEP 1. BASS
DR13 -6.19 dB -20.83 dB 1:30 43-Instructions for Speaker Placement: Djembe: extreme bass
DR9 -12.85 dB -26.63 dB 0:27 44-Instructions for Speaker Placement: Octobass: 28Hz, 56Hz
DR6 -12.12 dB -19.70 dB 0:27 45-Instructions for Speaker Placement: Octobass: 42Hz, 84Hz
DR7 -14.01 dB -24.65 dB 0:32 46-Instructions for Speaker Placement: Octobass: 28Hz to 224Hz
DR6 -14.47 dB -24.67 dB 0:27 47-Instructions for Speaker Placement: Octobass: 36Hz, 56Hz,112Hz, 224Hz
DR14 -11.78 dB -28.76 dB 1:33 48-Instructions for Speaker Placement: STEP 2. Toe-in
DR14 -12.97 dB -28.93 dB 0:28 49-Instructions for Speaker Placement: STEP 3. Levelling
DR13 -10.31 dB -27.36 dB 0:44 50-Instructions for Speaker Placement: Angle
DR14 -10.80 dB -27.81 dB 1:01 51-Instructions for Speaker Placement: STEP 4. Subwoofer Placement and Phasing
DR13 -13.20 dB -28.54 dB 0:48 52-Instructions for Speaker Placement: Crossover Setting
DR12 -13.21 dB -28.95 dB 0:21 53-Instructions for Speaker Placement: Subwoofer Second Option
DR13 -13.26 dB -28.45 dB 0:56 54-Instructions for Speaker Placement: STEP 5. Corner Treatment and Imaging
DR13 -13.48 dB -29.39 dB 0:14 55-Instructions for Speaker Placement: Corner Absorber
DR12 -11.94 dB -27.42 dB 0:32 56-Instructions for Speaker Placement: Room Challenges
DR14 -16.31 dB -33.50 dB 0:36 57-Precise Location and Depth of Field
DR25 -15.03 dB -47.04 dB 0:49 58-Precise Location and Depth of Field: Center, 8 ft.
DR23 -17.19 dB -47.41 dB 0:38 59-Precise Location and Depth of Field: Mid left, 11 ft.
DR26 -19.08 dB -50.01 dB 0:45 60-Precise Location and Depth of Field: Left, 18 ft.
DR24 -16.14 dB -45.71 dB 0:46 61-Precise Location and Depth of Field: Mid right, 11 ft.
DR23 -19.69 dB -47.06 dB 0:43 62-Precise Location and Depth of Field: Right, 18 ft.
DR18 -27.62 dB -49.43 dB 0:38 63-Precise Location and Depth of Field: Left, 30 ft.
DR23 -22.23 dB -48.28 dB 0:28 64-Precise Location and Depth of Field: Mid left, 28 ft.
DR23 -19.76 dB -49.24 dB 0:40 65-Precise Location and Depth of Field: Center, 28 ft.
DR21 -22.27 dB -49.27 dB 0:34 66-Precise Location and Depth of Field: Mid right, 28 ft.
DR17 -27.31 dB -50.58 dB 0:35 67-Precise Location and Depth of Field: Right, 30 ft.
DR9 -9.75 dB -21.91 dB 1:29 68-Precise Location and Depth of Field: Octobass recording
DR12 -12.12 dB -29.36 dB 0:23 69-Precise Location and Depth of Field: 2xHD Audiophile High res system test album
––––––––––––––––––––––––––––––––––––––––

Number of tracks: 69
Official DR value: DR13

Samplerate: 5644800 Hz / PCM Samplerate: 88200 Hz
Channels: 2
Bits per sample: 1
Bitrate: 11290 kbps
Codec: DSD128
================================================================================


Thanks to the Original customer!