AC-DC - Power Up (2020) [Official Digital Download 24/96]

Posted By: pyatak
AC-DC - Power Up (2020) [Official Digital Download 24/96]

AC-DC - Power Up (2020) [Official Digital Download 24/96]
FLAC (tracks) 24-bit/96 kHz | Front Cover | Time - 41:02 minutes | 974 MB
Rock | Label: Columbia, Official Digital Download

On ‘Power Up’, it takes less than 20 seconds for AC/DC to deliver the heavy rock sound that was first pioneered by, well, AC/DC. “The moment you realize / Those moments just pass you by/ Gonna take you to paradise,” comes the familiar howl of frontman Brian Johnson, bolstered by the guitars of Angus Young, on the pummelling ‘Realise’.

TRACKLIST

1. AC/DC - Realize
2. AC/DC - Rejection
3. AC/DC - Shot In The Dark
4. AC/DC - Through The Mists Of Time
5. AC/DC - Kick You When You're Down
6. AC/DC - Witch's Spell
7. AC/DC - Demon Fire
8. AC/DC - Wild Reputation
9. AC/DC - No Man's Land
10. AC/DC - Systems Down
11. AC/DC - Money Shot
12. AC/DC - Code Red

foobar2000 1.6.2 / Dynamic Range Meter 1.1.1
log date: 2020-11-13 01:12:59

––––––––––––––––––––––––––––––––––––––––
Analyzed: AC/DC / Power Up
––––––––––––––––––––––––––––––––––––––––

DR Peak RMS Duration Track
––––––––––––––––––––––––––––––––––––––––
DR6 -0.19 dB -7.34 dB 3:37 01-Realize
DR6 -0.17 dB -7.46 dB 4:06 02-Rejection
DR7 -0.17 dB -8.25 dB 3:05 03-Shot In The Dark
DR7 -0.18 dB -8.01 dB 3:32 04-Through The Mists Of Time
DR6 -0.15 dB -8.23 dB 3:10 05-Kick You When You're Down
DR6 -0.16 dB -7.45 dB 3:42 06-Witch's Spell
DR6 -0.15 dB -7.91 dB 3:30 07-Demon Fire
DR8 -0.17 dB -9.35 dB 2:54 08-Wild Reputation
DR7 -0.18 dB -9.10 dB 3:40 09-No Man's Land
DR6 -0.19 dB -7.83 dB 3:13 10-Systems Down
DR7 -0.19 dB -8.38 dB 3:05 11-Money Shot
DR7 -0.18 dB -8.81 dB 3:30 12-Code Red
––––––––––––––––––––––––––––––––––––––––

Number of tracks: 12
Official DR value: DR7

Samplerate: 96000 Hz
Channels: 2
Bits per sample: 24
Bitrate: 3276 kbps
Codec: FLAC
================================================================================



Thanks to the Original customer.