Aaron Frazer - Introducing... (2021) [Official Digital Download]

Posted By: pyatak
Aaron Frazer - Introducing... (2021) [Official Digital Download]

Aaron Frazer - Introducing… (2021) [Official Digital Download]
FLAC (tracks) 24-bit/48 kHz | Front Cover | Time - 42:18 minutes | 492 MB
Soul | Label: Dead Oceans , Official Digital Download

Was soul music better before? No!" answers Aaron Frazer's first album. Spotted as the drummer and co-singer of Durand Jones & the Indications, this young soul brother from Baltimore, now living in Brooklyn, launches his solo career with Introducing…, an impeccable opus with a vintage flavour, produced by the legendary Dan Auerbach. In Nashville's Easy Eye Sound Studio, home to the Black Keys, Frazer's celestial falsetto, influenced by Smokey Robinson and Curtis Mayfield, resounds to perfection. Both conscious and amorous, like all the great fifties and sixties soul singers, he juggles pure love songs and politically charged ones with disconcerting ease. His soft voice is a divine whisper, modern and ageless at the same time. Like the trans-generational cast that supports him, ranging from old hands like the Memphis Boys (big names who have made their mark on Dusty Springfield's Son of A Preacher Man and Aretha Franklin's (You Make Me Feel Like) A Natural Woman) to the youngest virtuosos of the Daptone stable - Big Crown Records… Gospel, doo-wop, funk and Northern Soul (Over You and its addictive up-tempo beat), Frazer even conjures up the ghosts of Marvin Gaye and Gil Scott-Heron on the smooth, funky Bad News. He knows and masters his classics, and his magnificent Introducing… is indeed an album from 2021, not 1961. Like his contemporaries Mayer Hawthorne or Curtis Harding, Aaron Frazer transposes his passion for vintage music into his time. He knows that the beauty of soul is that it cries with you, rejoices with you, makes you want to dance and can also make you think socially and consciously, whether it's 1961 or 2021!

TRACKLIST

01. Aaron Frazer - You Don't Wanna Be My Baby
02. Aaron Frazer - If I Got It (Your Love Brought It)
03. Aaron Frazer - Can’t Leave It Alone
04. Aaron Frazer - Bad News
05. Aaron Frazer - Have Mercy
06. Aaron Frazer - Done Lyin’
07. Aaron Frazer - Lover Girl
08. Aaron Frazer - Ride with Me
09. Aaron Frazer - Girl on the Phone
10. Aaron Frazer - Love Is
11. Aaron Frazer - Over You
12. Aaron Frazer - Leanin’ on Your Everlasting Love

foobar2000 1.6.2 / Dynamic Range Meter 1.1.1
log date: 2021-01-08 08:02:48

––––––––––––––––––––––––––––––––––––––––
Analyzed: Aaron Frazer / Introducing…
––––––––––––––––––––––––––––––––––––––––

DR Peak RMS Duration Track
––––––––––––––––––––––––––––––––––––––––
DR7 -0.57 dB -9.31 dB 4:07 01-You Don't Wanna Be My Baby
DR7 -0.53 dB -9.08 dB 2:54 02-If I Got It (Your Love Brought It)
DR6 -0.62 dB -8.18 dB 2:33 03-Can’t Leave It Alone
DR7 -0.50 dB -8.86 dB 3:49 04-Bad News
DR8 -0.50 dB -10.67 dB 4:01 05-Have Mercy
DR7 -0.58 dB -9.47 dB 3:10 06-Done Lyin’
DR7 -0.55 dB -8.58 dB 3:35 07-Lover Girl
DR7 -0.58 dB -9.06 dB 3:53 08-Ride with Me
DR6 -0.50 dB -8.11 dB 3:28 09-Girl on the Phone
DR7 -0.64 dB -9.15 dB 4:03 10-Love Is
DR6 -0.54 dB -8.51 dB 2:39 11-Over You
DR6 -0.63 dB -8.51 dB 4:14 12-Leanin’ on Your Everlasting Love
––––––––––––––––––––––––––––––––––––––––

Number of tracks: 12
Official DR value: DR7

Samplerate: 44100 Hz
Channels: 2
Bits per sample: 24
Bitrate: 1524 kbps
Codec: FLAC
================================================================================



Thanks to the Original customer.