Subcategories

Accentus Austria - Johann Joseph Fux: Ave Regina (2017) [Official Digital Download 24/96]

Posted By: SERTiL
Accentus Austria - Johann Joseph Fux: Ave Regina (2017) [Official Digital Download 24/96]

Accentus Austria - Johann Joseph Fux: Ave Regina (2017)
FLAC (tracks) 24-bit/96 kHz | Time - 57:31 minutes | 0.99 GB
Studio Master, Official Digital Download | Artwork: Digital booklet

Johann Joseph Fux served for many years as the imperial court’s Kapellmeister in Vienna, and is one of the best known and most important composers of that period. In times of the most fervent religious faith, during which the Habsburg Emperor considered piety the foremost virtue of a ruling sovereign as well as indispensable as the basis for organizing society, the roles of the Kapellmeister and court orchestra were of essential importance. Fux composed many sacred works for public church services that functioned as a visible sign of the close connection between church and state. In addition to Masses, Requiem Masses and Vespers, Marian antiphons and sonatas for performance at the Gradual took on special importance. Known for the precision of its historically informed performances, Accentus Austria and its conductor Thomas Wimmer have selected a musically absorbing and diverse program of sonatas and antiphons by Fux for this CD. The works by Fux featured on this disc are never monotonous – in fact, they surprise the listener with their musical refinement and wide-ranging tonal language. This new release includes wonderful Ave Regina antiphons in outstanding performances by soprano Hana Blažíková.

TRACKLIST

Johann Joseph Fux (1660 - 1741)

1 Ave Regina caelorum, K208 05:00
2 Sonata à 3, K367 04:01
3 Alma Redemptoris Mater, K185 05:10
4 Sonata à 3, K369 03:36
5 Ave Regina caelorum, K206 03:21
6 Sonata à 3, K379 04:54
7 Ave Regina caelorum, K207 06:50
8 Sonata à 3, K377 03:48
9 Pia Mater fons amoris, K176 07:38
10 Sonata Pastorale à 3, K397 03:19
11 Ave Regina caelorum, K205 04:13
12 Sonata à 4, K34 02:08
13 Alma Redemptoris Mater, K187 03:20

PERSONNEL
Hana Blazikova, soprano
Accentus Austria
Thomas Wimmer, conductor

foobar2000 1.3.7 / Dynamic Range Meter 1.1.1
log date: 2017-06-25 12:19:11

––––––––––––––––––––––––––––––––––––––––
Analyzed: Accentus Austria / Johann Joseph Fux: Ave Regina
––––––––––––––––––––––––––––––––––––––––

DR Peak RMS Duration Track
––––––––––––––––––––––––––––––––––––––––
DR13 -0.63 dB -17.93 dB 5:02 01-Ave Regina caelorum, K208
DR12 -2.16 dB -18.66 dB 4:01 02-Sonata à 3, K367
DR14 -0.40 dB -17.58 dB 5:11 03-Alma Redemptoris Mater, K185
DR11 -5.42 dB -20.34 dB 3:36 04-Sonata à 3, K369
DR13 -0.40 dB -17.52 dB 3:22 05-Ave Regina caelorum, K206
DR12 -5.11 dB -21.12 dB 4:57 06-Sonata à 3, K379
DR14 -0.26 dB -17.82 dB 6:52 07-Ave Regina caelorum, K207
DR12 -4.76 dB -20.69 dB 3:50 08-Sonata à 3, K377
DR14 0.00 dB -17.74 dB 7:39 09-Pia Mater fons amoris, K176
DR11 -5.82 dB -20.92 dB 3:20 10-Sonata Pastorale à 3, K397
DR11 0.00 dB -16.01 dB 4:15 11-Ave Regina caelorum, K205
DR12 -2.76 dB -18.56 dB 2:11 12-Sonata à 4, K346
DR14 -0.42 dB -18.06 dB 3:20 13-Alma Redemptoris Mater, K187
––––––––––––––––––––––––––––––––––––––––

Number of tracks: 13
Official DR value: DR13

Samplerate: 96000 Hz
Channels: 2
Bits per sample: 24
Bitrate: 2394 kbps
Codec: FLAC
================================================================================


Thanks to the Original customer.