Adam Laloum - Schumann Davidsbündlertänze, Op. 6 - Schubert Sonate pour piano en Si-Bémol Majeur, D. 960 (2016) [24/96]

Posted By: SERTiL
Adam Laloum - Schumann Davidsbündlertänze, Op. 6 - Schubert Sonate pour piano en Si-Bémol Majeur, D. 960 (2016) [24/96]

Adam Laloum - Schumann Davidsbündlertänze, Op. 6 - Schubert Sonate pour piano en Si-Bémol Majeur, D. 960 (2016)
FLAC (tracks) 24-bit/96 kHz | Time - 78:51 minutes | 1.29 GB
Studio Master, Official Digital Download | Artwork: Digital booklet

For both Schubert and Schumann, the Romantic poetics of the instant and of eternity became equivalent. With his rare penetration into their world, Adam Laloum has entered by rights into the narrow, timeless circle of the soul mates of the two visionary geniuses.

“The ineffable piano of this artist carries within him this song, this bit of madness, and the nostalgia that signed the unique art of Guiomar Novaes, Vladimir Horowitz , Clara Haskil, Wilhelm Kempff and a few others, including Catherine Collard, who was the queen of this repertoire (…) ”

TRACKLIST

Robert Schumann (1810-1856)

01. Davidsbündlertänze, Op. 6: I. Lebhaft
02. Davidsbündlertänze, Op. 6: II. Innig
03. Davidsbündlertänze, Op. 6: III. Mit Humor-Etwas hahnbüchen
04. Davidsbündlertänze, Op. 6: IV. Ungeduldig
05. Davidsbündlertänze, Op. 6: V. Einfach
06. Davidsbündlertänze, Op. 6: VI. Sehr rasch und in sich hinein
07. Davidsbündlertänze, Op. 6: VII. Nicht schnell-Mit äußerst starker Empfindung
08. Davidsbündlertänze, Op. 6: VIII. Frisch
09. Davidsbündlertänze, Op. 6: IX. Lebhaft
10. Davidsbündlertänze, Op. 6: X. Balladenmäßig-Sehr rasch
11. Davidsbündlertänze, Op. 6: XI. Einfach
12. Davidsbündlertänze, Op. 6: XII. Mit Humor
13. Davidsbündlertänze, Op. 6: XIII. Wild und lustig
14. Davidsbündlertänze, Op. 6: XIV. Zart und singend
15. Davidsbündlertänze, Op. 6: XV. Frisch
16. Davidsbündlertänze, Op. 6: XVI. Mit gutem Humor
17. Davidsbündlertänze, Op. 6: XVII. Wie aus der Ferne
18. Davidsbündlertänze, Op. 6: XVIII. Nicht schnell

Franz Schubert (1797-1828)

19. Sonate pour piano en Si-Bémol Majeur, D. 960: I. Molto moderato
20. Sonate pour piano en Si-Bémol Majeur, D. 960: II. Andante sostenuto
21. Sonate pour piano en Si-Bémol Majeur, D. 960: III. Scherzo
22. Sonate pour piano en Si-Bémol Majeur, D. 960: IV. Allegro ma non troppo

PERSONNEL
Adam Laloum, piano

foobar2000 1.3.7 / Dynamic Range Meter 1.1.1
log date: 2017-10-07 17:35:18

––––––––––––––––––––––––––––––––––––––––
Analyzed: Adam Laloum / Schumann: Davidsbündlertänze, Op. 6 - Schubert: Sonate pour piano en Si-Bémol Majeur, D. 960
––––––––––––––––––––––––––––––––––––––––

DR Peak RMS Duration Track
––––––––––––––––––––––––––––––––––––––––
DR12 -2.94 dB -20.89 dB 1:39 01-Davidsbündlertänze, Op. 6: I. Lebhaft
DR12 -11.33 dB -31.36 dB 1:50 02-Davidsbündlertänze, Op. 6: II. Innig
DR11 -0.57 dB -16.81 dB 1:29 03-Davidsbündlertänze, Op. 6: III. Mit Humor-Etwas hahnbüchen
DR10 -2.06 dB -14.68 dB 0:49 04-Davidsbündlertänze, Op. 6: IV. Ungeduldig
DR13 -10.28 dB -28.68 dB 1:59 05-Davidsbündlertänze, Op. 6: V. Einfach
DR10 -1.83 dB -16.13 dB 1:55 06-Davidsbündlertänze, Op. 6: VI. Sehr rasch und in sich hinein
DR14 -3.44 dB -25.12 dB 4:11 07-Davidsbündlertänze, Op. 6: VII. Nicht schnell-Mit äußerst starker Empfindung
DR11 -2.11 dB -16.79 dB 0:39 08-Davidsbündlertänze, Op. 6: VIII. Frisch
DR11 -2.86 dB -17.42 dB 1:37 09-Davidsbündlertänze, Op. 6: IX. Lebhaft
DR9 -2.30 dB -16.69 dB 1:32 10-Davidsbündlertänze, Op. 6: X. Balladenmäßig-Sehr rasch
DR12 -9.40 dB -27.69 dB 1:46 11-Davidsbündlertänze, Op. 6: XI. Einfach
DR12 -4.80 dB -20.55 dB 0:39 12-Davidsbündlertänze, Op. 6: XII. Mit Humor
DR11 -0.75 dB -17.59 dB 3:20 13-Davidsbündlertänze, Op. 6: XIII. Wild und lustig
DR13 -12.34 dB -32.00 dB 2:45 14-Davidsbündlertänze, Op. 6: XIV. Zart und singend
DR11 -1.18 dB -18.38 dB 2:03 15-Davidsbündlertänze, Op. 6: XV. Frisch
DR12 -1.96 dB -18.74 dB 1:36 16-Davidsbündlertänze, Op. 6: XVI. Mit gutem Humor
DR13 -2.70 dB -22.92 dB 3:59 17-Davidsbündlertänze, Op. 6: XVII. Wie aus der Ferne
DR13 -8.96 dB -28.93 dB 1:44 18-Davidsbündlertänze, Op. 6: XVIII. Nicht schnell
DR17 -0.13 dB -23.59 dB 20:59 19-Sonate pour piano en Si-Bémol Majeur, D. 960: I. Molto moderato
DR16 -4.18 dB -27.11 dB 10:01 20-Sonate pour piano en Si-Bémol Majeur, D. 960: II. Andante sostenuto
DR11 -6.44 dB -22.35 dB 4:00 21-Sonate pour piano en Si-Bémol Majeur, D. 960: III. Scherzo
DR13 -0.87 dB -20.20 dB 8:31 22-Sonate pour piano en Si-Bémol Majeur, D. 960: IV. Allegro ma non troppo
––––––––––––––––––––––––––––––––––––––––

Number of tracks: 22
Official DR value: DR12

Samplerate: 96000 Hz
Channels: 2
Bits per sample: 24
Bitrate: 2356 kbps
Codec: FLAC
================================================================================


Thanks to the Original customer.