Alan Jay Lerner & Frederick Loewe - Lerner & Loewe's Brigadoon (New York City Center 2017 Cast Recording) (2018) [HI-Res]

Posted By: pyatak
Alan Jay Lerner & Frederick Loewe - Lerner & Loewe's Brigadoon (New York City Center 2017 Cast Recording) (2018) [HI-Res]

Alan Jay Lerner & Frederick Loewe - Lerner & Loewe's Brigadoon (New York City Center 2017 Cast Recording) (2018) [HI-Res]
FLAC (tracks) 24-bit/48 kHz | Front Cover | Time - 58:10 minutes | 685 MB
Soundtracks | Label: Ghostlight Records, Official Digital Download

Before My Fair Lady and Camelot there was Brigadoon. City Center brought back this classic musical out of the Highlands mist for its 70th anniversary in a star-studded concert production, now preserved on a new cast album. Patrick Wilson (two-time Tony Award nominee, Oklahoma! and The Full Monty) is Tommy Albright and Aasif Mandvi (The Daily Show) is his friend Jeff Douglas—both are jaded New Yorkers who stumble into an idyllic Scottish town that appears for only one day every century. Tony Award winner Kelli O’Hara (The King and I) is Fiona, the woman who quickly steals Tommy’s heart. Stephanie J. Block (two-time Tony Award nominee, The Mystery of Edwin Drood and Falsettos) is Meg Brockie, Fiona’s flirty dairymaid best friend who takes a liking to Jeff. Robert Fairchild (Tony Award nominee for An American in Paris) plays the rebellious Harry Beaton who is in love with Fiona’s younger sister, Jean (Sara Esty, An American in Paris). However, Jean is getting married to Charlie Dalrymple (Ross Lekites, Kinky Boots), which sends Harry into a rage—causing him to jeopardize the very existence of the mystical village of Brigadoon. This album features The Encores! Orchestra, led by Music Director Rob Berman. The CD package includes a 32-page booklet with lyrics, show photos, a synopsis, and a liner note.

TRACKLIST

1. Prologue - By 'Brigadoon' 2017 New York City Center Orchestra
2. Brigadoon / Vendors' Calls / MacConnachy Square - By 'Brigadoon' 2017 New York City Center Ensemble
3. Waitin' for My Dearie - By Kelli O'Hara, 'Brigadoon' 2017 New York City Center Female Ensemble
4. I'll Go Home with Bonnie Jean - By Ross Lekites
5. I'll Go Home with Bonnie Jean - Dance - By 'Brigadoon' 2017 New York City Center Orchestra
6. The Heather on the Hill - By Patrick Wilson & Kelli O'Hara
7. The Love of My Life - By Stephanie J. Block
8. Come to Me, Bend to Me - By Ross Lekites
9. Come to Me, Bend to Me - Dance - By 'Brigadoon' 2017 New York City Center Orchestra
10. Almost Like Being in Love - By Patrick Wilson & Kelli O'Hara
11. Sword Dance and Reel - By 'Brigadoon' 2017 New York City Center Ensemble
12. The Chase - By 'Brigadoon' 2017 New York City Center Male Ensemble
13. There but for You Go I - By Patrick Wilson
14. My Mother's Weddin' Day - By Stephanie J. Block & 'Brigadoon' 2017 New York City Center Ensemble
15. From This Day On / Farewell Music - By Patrick Wilson & Kelli O'Hara
16. Reprises - By Kelli O'Hara & Patrick Wilson
17. Finale - By Patrick Wilson, Kelli O'Hara, & 'Brigadoon' 2017 New York City Center Ensemble


foobar2000 1.3.16 / Dynamic Range Meter 1.1.1
log date: 2018-12-07 02:44:01

––––––––––––––––––––––––––––––––––––––––
Analyzed: 'Brigadoon' 2017 New York City Center Ensemble / Lerner & Loewe's Brigadoon (New York City Center 2017 Cast Recording) (1-2)
'Brigadoon' 2017 New York City Center Male Ensemble / Lerner & Loewe's Brigadoon (New York City Center 2017 Cast Recording) (3)
'Brigadoon' 2017 New York City Center Orchestra / Lerner & Loewe's Brigadoon (New York City Center 2017 Cast Recording) (4-6)
Kelli O'Hara & 'Brigadoon' 2017 New York City Center Female Ensemble / Lerner & Loewe's Brigadoon (New York City Center 2017 Cast Recording) (7)
Kelli O'Hara & Patrick Wilson / Lerner & Loewe's Brigadoon (New York City Center 2017 Cast Recording) (8)
Patrick Wilson & Kelli O'Hara / Lerner & Loewe's Brigadoon (New York City Center 2017 Cast Recording) (9-11)
Patrick Wilson, Kelli O'Hara & 'Brigadoon' 2017 New York City Center Ensemble / Lerner & Loewe's Brigadoon (New York City Center 2017 Cast Recording) (12)
Patrick Wilson / Lerner & Loewe's Brigadoon (New York City Center 2017 Cast Recording) (13)
Ross Lekites / Lerner & Loewe's Brigadoon (New York City Center 2017 Cast Recording) (14-15)
Stephanie J. Block & 'Brigadoon' 2017 New York City Center Ensemble / Lerner & Loewe's Brigadoon (New York City Center 2017 Cast Recording) (16)
Stephanie J. Block / Lerner & Loewe's Brigadoon (New York City Center 2017 Cast Recording) (17)
––––––––––––––––––––––––––––––––––––––––

DR Peak RMS Duration Track
––––––––––––––––––––––––––––––––––––––––
DR8 0.00 dB -11.46 dB 5:30 02-Brigadoon / Vendors' Calls / MacConnachy Square
DR8 0.00 dB -9.92 dB 3:13 11-Sword Dance and Reel
DR9 0.00 dB -12.01 dB 4:50 12-The Chase
DR11 -0.03 dB -12.42 dB 1:01 01-Prologue
DR10 0.00 dB -13.33 dB 3:28 05-I'll Go Home with Bonnie Jean - Dance
DR12 -0.32 dB -16.27 dB 5:22 09-Come to Me, Bend to Me - Dance
DR10 -0.15 dB -13.35 dB 4:07 03-Waitin' for My Dearie
DR9 0.00 dB -13.77 dB 4:29 16-Reprises
DR9 0.00 dB -12.03 dB 3:25 06-The Heather on the Hill
DR9 0.00 dB -11.97 dB 2:30 10-Almost Like Being in Love
DR9 0.00 dB -13.00 dB 3:49 15-From This Day On / Farewell Music
DR9 0.00 dB -14.30 dB 2:42 17-Finale
DR9 0.00 dB -13.03 dB 3:17 13-There But For You Go I
DR10 0.00 dB -13.32 dB 2:20 04-I'll Go Home with Bonnie Jean
DR12 -0.14 dB -15.28 dB 2:14 08-Come to Me, Bend to Me
DR9 0.00 dB -11.30 dB 2:32 14-My Mother's Weddin' Day
DR10 0.00 dB -12.79 dB 3:32 07-The Love of My Life
––––––––––––––––––––––––––––––––––––––––

Number of tracks: 17
Official DR value: DR10

Samplerate: 48000 Hz
Channels: 2
Bits per sample: 24
Bitrate: 1653 kbps
Codec: FLAC
================================================================================



Thanks to the Original customer.