Alan Kwan Quartet - Petrichor (2019) [Official Digital Download]

Posted By: pyatak
Alan Kwan Quartet - Petrichor (2019) [Official Digital Download]

Alan Kwan Quartet - Petrichor (2019) [Official Digital Download]
FLAC (tracks) 24-bit/44.1 kHz | Front Cover | Time - 41:57 minutes | 462 MB
Jazz | Label: AsiaMuse Entertainment Co., Ltd., Official Digital Download

"Petrichor" from the album ‘Petrichor’, will be released on May 17th, 2019

Alan Kwan is a jazz guitarist, composer, and educator who is currently based in New York City.

Kwan was born in Hong Kong and started playing guitar at the age of 14; after 4 years of musical training, he decided to devote himself to jazz and studied with Ted Lo and Eugene Pao, two of the most distinguished jazz musicians in the city, before embarking on his journey as a jazz artist. Within a few years, Kwan became one of the most active jazz musicians in Hong Kong.

TRACKLIST

1 Voyage
2 When Will I See You Again?
3 Central Escalators
4 Montauk
5 Petrichor
6 Hold True
7 Tread Softly


foobar2000 1.3.16 / Dynamic Range Meter 1.1.1
log date: 2019-05-17 16:00:23

––––––––––––––––––––––––––––––––––––––––
Analyzed: Alan Kwan Quartet / Petrichor
––––––––––––––––––––––––––––––––––––––––

DR Peak RMS Duration Track
––––––––––––––––––––––––––––––––––––––––
DR7 -0.70 dB -9.46 dB 6:46 01-Voyage
DR7 -0.70 dB -8.95 dB 6:02 02-When Will I See You Again?
DR11 -0.78 dB -13.24 dB 6:20 03-Central Escalators
DR10 -0.73 dB -13.56 dB 4:55 04-Montauk
DR7 -0.70 dB -10.25 dB 7:58 05-Petrichor
DR7 -0.75 dB -9.44 dB 6:39 06-Hold True
DR11 -0.80 dB -15.36 dB 3:17 07-Tread Softly
––––––––––––––––––––––––––––––––––––––––

Number of tracks: 7
Official DR value: DR9

Samplerate: 44100 Hz
Channels: 2
Bits per sample: 24
Bitrate: 1175 kbps
Codec: FLAC
================================================================================



Thanks to the Original customer.