Alexander Armstrong - In a Winter Light (2017) [Official Digital Download]

Posted By: pyatak
Alexander Armstrong - In a Winter Light (2017) [Official Digital Download]

Alexander Armstrong - In a Winter Light (2017) [Official Digital Download]
FLAC (tracks) 24-bit/44.1 kHz | Front Cover | Time - 47:40 minutes | 491 MB
Vocal Classical, X-Mas | Label: , Official Digital Download

After two Top 10 albums – ‘A Year of Songs’ (2015) and ‘Upon A Different Shore’ (2016) –the actor, comedian, presenter and classically trained baritone Alexander Armstrong is set to release his first Christmas album ‘In A Winter Light’. Having spent years performing in choirs, Armstrong’s beloved musical heritage is on full, glorious display on ‘In A Winter Light’. Recorded with the City of Prague Orchestra, abetted by the Choir of New College Oxford, the RAF Squadronaires big band and Jools Holland, it’s the rich, enveloping sound of a gifted baritone pursuing the range of his seasonal and musical passions.

TRACKLIST

1 Angels in a Winter Light (Prologue) [Instrumental]
2 White Winter Hymnal
3 The Christmas Song (Chestnuts Roasting on an Open Fire)
4 This Glorious Morrow (feat. The Choir of New College Oxford)
5 Let It Snow (feat. Trebles of The Choir of New College Oxford)
6 I Still Believe in Christmas
7 O Holy Night (feat. Trebles of The Choir of New College Oxford)
8 Little Girl Blue (feat. Jools Holland)
9 Girl in the Dark (Instrumental Interlude)
10 Silent Night (feat. The Royal Air Force Squadronaires)
11 There is No Rose
12 Winter Wonderland (feat. The Royal Air Force Squadronaires)
13 In The Bleak Midwinter
14 Bethlehem Down
15 A Spotless Rose (feat. The Choir of New College Oxford)
16 Angels in a Winter Light (Epilogue) [Instrumental]

foobar2000 1.3.16 / Dynamic Range Meter 1.1.1
log date: 2017-11-23 17:28:22

––––––––––––––––––––––––––––––––––––––––
Analyzed: Alexander Armstrong / In a Winter Light
––––––––––––––––––––––––––––––––––––––––

DR Peak RMS Duration Track
––––––––––––––––––––––––––––––––––––––––
DR10 -3.78 dB -21.12 dB 1:12 01-Angels in a Winter Light (Prologue) [Instrumental]
DR11 -0.55 dB -13.79 dB 1:49 02-White Winter Hymnal
DR12 -0.98 dB -17.67 dB 3:09 03-The Christmas Song (Chestnuts Roasting on an Open Fire)
DR12 -0.55 dB -15.58 dB 3:51 04-This Glorious Morrow (feat. The Choir of New College Oxford)
DR11 -0.85 dB -16.35 dB 2:03 05-Let It Snow (feat. Trebles of The Choir of New College Oxford)
DR11 -1.52 dB -16.39 dB 3:38 06-I Still Believe in Christmas
DR11 -0.40 dB -14.59 dB 4:56 07-O Holy Night (feat. Trebles of The Choir of New College Oxford)
DR11 -2.79 dB -17.33 dB 4:08 08-Little Girl Blue (feat. Jools Holland)
DR14 -8.76 dB -30.10 dB 1:18 09-Girl in the Dark (Instrumental Interlude)
DR10 -0.84 dB -15.73 dB 3:17 10-Silent Night (feat. The Royal Air Force Squadronaires)
DR11 -2.58 dB -17.10 dB 3:14 11-There is No Rose
DR13 -0.24 dB -15.85 dB 2:18 12-Winter Wonderland (feat. The Royal Air Force Squadronaires)
DR11 -0.65 dB -15.31 dB 4:11 13-In The Bleak Midwinter
DR11 -2.11 dB -16.22 dB 4:12 14-Bethlehem Down
DR13 -0.59 dB -18.68 dB 3:23 15-A Spotless Rose (feat. The Choir of New College Oxford)
DR11 -17.34 dB -33.15 dB 1:09 16-Angels in a Winter Light (Epilogue) [Instrumental]
––––––––––––––––––––––––––––––––––––––––

Number of tracks: 16
Official DR value: DR12

Samplerate: 44100 Hz
Channels: 2
Bits per sample: 24
Bitrate: 1084 kbps
Codec: FLAC
================================================================================



Thanks to the Original customer.