Allen Stone - Building Balance (2019) [Official Digital Download]

Posted By: Pisulik
Allen Stone - Building Balance (2019) [Official Digital Download]

Allen Stone - Building Balance (2019)
FLAC (tracks) 24-bit/44.1 kHz | Time - 47:41 minutes | 575 MB
Studio Master, Official Digital Download | Artwork: Front cover

Allen Stone s 'Building Balance' is his first new album in 4 years, spanning a time period spent figuring out how the old parts and the new parts of his universe were going to co-exist. For Building Balance he worked with Grammy-winning producer Nasri as well as Jamie Lidell. Stone continues to draw inspiration from '70s funk and soul with current flexes, sitting amid D'Angelo in its sultrier moments, Stevie Wonder at its most melodic and the production of Mark Ronson at its most modern.

Tracklist:

1. Brown Eyed Lover (3:58)
2. Sunny Days (3:11)
3. Consider Me (3:05)
4. Hold it Down (3:52)
5. Sweaters (2:56)
6. Miscommunicate (3:50)
7. Lay it Down (2:57)
8. Back to the Swing (3:38)
9. I'm Alright (3:11)
10. Taste of You (3:33)
11. Give You Blue (3:47)
12. Look Outside (3:51)
13. Chippin’ Away (2:47)
14. Warriors (3:14)

foobar2000 1.3.7 / Dynamic Range Meter 1.1.1
log date: 2019-11-08 13:31:29

––––––––––––––––––––––––––––––––––––––––
Analyzed: Allen Stone feat. Jamie Lidell / Building Balance (1)
Allen Stone / Building Balance (2-14)
––––––––––––––––––––––––––––––––––––––––

DR Peak RMS Duration Track
––––––––––––––––––––––––––––––––––––––––
DR6 -1.00 dB -8.22 dB 3:33 10-Taste of You
DR6 -1.00 dB -9.29 dB 3:58 01-Brown Eyed Lover
DR7 -1.00 dB -10.23 dB 3:11 02-Sunny Days
DR6 -1.00 dB -10.17 dB 3:05 03-Consider Me
DR6 -1.00 dB -8.51 dB 3:52 04-Hold it Down
DR6 -1.00 dB -8.06 dB 2:56 05-Sweaters
DR7 -1.00 dB -10.16 dB 3:50 06-Miscommunicate
DR5 -1.39 dB -7.83 dB 2:57 07-Lay it Down
DR5 -1.10 dB -7.89 dB 3:38 08-Back to the Swing
DR4 -1.00 dB -8.52 dB 3:11 09-I'm Alright
DR6 -1.00 dB -8.87 dB 3:47 11-Give You Blue
DR7 -1.00 dB -9.00 dB 3:51 12-Look Outside
DR6 -1.00 dB -9.00 dB 2:47 13-Chippin’ Away
DR5 -1.00 dB -8.48 dB 3:14 14-Warriors
––––––––––––––––––––––––––––––––––––––––

Number of tracks: 14
Official DR value: DR6

Samplerate: 44100 Hz
Channels: 2
Bits per sample: 24
Bitrate: 1636 kbps
Codec: FLAC
================================================================================


All thanks go to the original releaser