André Previn - Mozart - Piano Concertos Nos. 17 & 24 (1973/2021) [Official Digital Download 24/192]

Posted By: pyatak
André Previn - Mozart - Piano Concertos Nos. 17 & 24 (1973/2021) [Official Digital Download 24/192]

André Previn - Mozart - Piano Concertos Nos. 17 & 24 (1973/2021) [Official Digital Download 24/192]
FLAC (tracks) 24-bit/192 kHz | Front Cover | Time - 62:45 minutes | 2,27 GB
Classical | Label: Parlophone Records, Official Digital Download

German-American pianist André Previn appears as the soloist, backed by the London Symphony Orchestra lead by Sir Adrian Boult, for this presentation of Mozart's Piano Concertos Nos. 17 & 24. The Piano Concerto No. 17 in G major, KV. 453 was written in 1784. The finale is a variation movement whose theme was sung by Mozart's starling. The Piano Concerto No. 24 in C minor, K. 491 was composed in the winter of 1785–1786, finished on 24 March 1786, three weeks after the completion of Piano Concerto No. 23 in A major. The work is one of only two minor-key piano concertos that Mozart composed, the other being the No. 20 in D minor. None of Mozart's other piano concertos features a larger array of instruments: the work is scored for strings, woodwinds, horns, trumpets and timpani.

TRACKLIST
1. André Previn - Piano Concerto No. 17 in G Major, K. 453: I. Allegro - Cadenza
2. André Previn - Piano Concerto No. 17 in G Major, K. 453: II. Andante - Cadenza
3. André Previn - Piano Concerto No. 17 in G Major, K. 453: III. Allegretto
4. André Previn - Piano Concerto No. 24 in C Minor, K. 491: I. Allegro - Cadenza
5. André Previn - Piano Concerto No. 24 in C Minor, K. 491: II. Larghetto
6. André Previn - Piano Concerto No. 24 in C Minor, K. 491: III. Allegretto

foobar2000 1.6.2 / Dynamic Range Meter 1.1.1
log date: 2021-04-23 20:06:26

––––––––––––––––––––––––––––––––––––––––
Analyzed: André Previn / Mozart: Piano Concertos Nos. 17 & 24
––––––––––––––––––––––––––––––––––––––––

DR Peak RMS Duration Track
––––––––––––––––––––––––––––––––––––––––
DR11 -0.81 dB -16.91 dB 12:09 01-Piano Concerto No. 17 in G Major, K. 453: I. Allegro - Cadenza
DR13 -4.54 dB -23.55 dB 11:26 02-Piano Concerto No. 17 in G Major, K. 453: II. Andante - Cadenza
DR11 -2.95 dB -18.70 dB 7:35 03-Piano Concerto No. 17 in G Major, K. 453: III. Allegretto
DR12 -1.79 dB -18.82 dB 14:26 04-Piano Concerto No. 24 in C Minor, K. 491: I. Allegro - Cadenza
DR12 -5.31 dB -23.62 dB 7:39 05-Piano Concerto No. 24 in C Minor, K. 491: II. Larghetto
DR13 -1.02 dB -19.90 dB 9:32 06-Piano Concerto No. 24 in C Minor, K. 491: III. Allegretto
––––––––––––––––––––––––––––––––––––––––

Number of tracks: 6
Official DR value: DR12

Samplerate: 192000 Hz
Channels: 2
Bits per sample: 24
Bitrate: 5068 kbps
Codec: FLAC
================================================================================



Thanks to the Original customer.