Tags
Language
Tags

Ann Richards - The Many Moods Of Ann Richards (1960/2021) [Official Digital Download 24/96]

Posted By: pyatak
Ann Richards - The Many Moods Of Ann Richards (1960/2021) [Official Digital Download 24/96]

Ann Richards - The Many Moods Of Ann Richards (1960/2021) [Official Digital Download 24/96]
FLAC (tracks) 24-bit/96 kHz | Front Cover | Time - 44:03 minutes | 853 MB
Jazz | Label: RevOla, Official Digital Download

The Many Moods of Ann Richards is the 1960 solo album recorded by Ann Richards and her second release for Capitol Records (Capitol T-T-1406, stereo). The arrangers for the sessions are Ralph Carmichael, Bill Holman, and Tak Shindo.

Jason Ankeny writes in AllMusic, "The Many Moods of Ann Richards captures the singer in a series of different contexts and styles, precisely the kind of project that could amount to little more than a patchwork mess in the hands of a lesser talent. But arrangers Ralph Carmichael, Bill Holman, and Tak Shindo all prove sympathetic collaborators, spotlighting Richards' smoldering vocals in milieus that perfectly complement her lusty vibrato." The review praises the blend of Holman's jazz and Shindo's Eastern exotica influences with Richards demonstrating confident versatile performances with both.

TRACKLIST

1. Connie Francis - The Exodus Song / Hava Nagilah (Remastered)
2. Ann Richards - Be Easy, Be Tender (Remastered)
3. Ann Richards - Where Did You Go? (Remastered)
4. Ann Richards - I’m Gonna Laugh (Remastered)
5. Ann Richards - I Gotta Have You! (Remastered)
6. Ann Richards - Lazy Afternoon (Remastered)
7. Ann Richards - Something’s Coming (Remastered)
8. Ann Richards - Everytime (Remastered)
9. Ann Richards - When The Sun Comes Out (Remastered)
10. Ann Richards - Poor Little Extra Girl (Remastered)
11. Ann Richards - Seasons Reasons (Remastered)
12. Ann Richards - I’m Late (Remastered)
13. Ann Richards - I Only Have Eyes For You (Live) (Remastered)

foobar2000 1.6.2 / Dynamic Range Meter 1.1.1
log date: 2021-09-25 09:06:31

––––––––––––––––––––––––––––––––––––––––
Analyzed: Ann Richards / The Many Moods Of Ann Richards (1-12)
Connie Francis / The Many Moods Of Ann Richards (13)
––––––––––––––––––––––––––––––––––––––––

DR Peak RMS Duration Track
––––––––––––––––––––––––––––––––––––––––
DR11 -0.09 dB -13.76 dB 3:50 02-Be Easy, Be Tender (Remastered)
DR10 0.00 dB -12.32 dB 2:39 03-Where Did You Go? (Remastered)
DR10 -0.08 dB -13.40 dB 4:28 04-I’m Gonna Laugh (Remastered)
DR11 -0.05 dB -12.91 dB 2:23 05-I Gotta Have You! (Remastered)
DR10 0.00 dB -12.83 dB 4:11 06-Lazy Afternoon (Remastered)
DR10 0.00 dB -12.00 dB 2:55 07-Something’s Coming (Remastered)
DR10 -0.06 dB -13.08 dB 3:33 08-Everytime (Remastered)
DR9 0.00 dB -11.83 dB 3:22 09-When The Sun Comes Out (Remastered)
DR10 -0.06 dB -12.42 dB 4:02 10-Poor Little Extra Girl (Remastered)
DR10 -0.07 dB -13.92 dB 3:09 11-Seasons Reasons (Remastered)
DR11 0.00 dB -12.89 dB 1:28 12-I’m Late (Remastered)
DR12 -4.92 dB -20.22 dB 2:57 13-I Only Have Eyes For You (Live) (Remastered)
DR12 -2.17 dB -20.28 dB 5:05 01-The Exodus Song / Hava Nagilah (Remastered)
––––––––––––––––––––––––––––––––––––––––

Number of tracks: 13
Official DR value: DR10

Samplerate: 96000 Hz
Channels: 2
Bits per sample: 24
Bitrate: 2400 kbps
Codec: FLAC
================================================================================



Thanks to the Original customer.