Anne-Kathrin Dern - Help, I Shrunk My Parents (Original Motion Picture Soundtrack) (2019) [Official Digital Download]

Posted By: Pisulik
Anne-Kathrin Dern - Help, I Shrunk My Parents (Original Motion Picture Soundtrack) (2019) [Official Digital Download]

Anne-Kathrin Dern - Help, I Shrunk My Parents (Original Motion Picture Soundtrack) (2019)
FLAC (tracks) 24-bit/44.1 kHz | Time - 56:58 minutes | 621 MB
Studio Master, Official Digital Download | Artwork: Front cover

Original Motion Picture Soundtrack for the film Help I Shrunk My Parents (2018). The music was composed by Anne-Kathrin Dern. Help, I Shrunk My Parents (originally titled as Hilfe ich hab meine Eltern geschrumpft) is a 2018 German adventure comedy film written by Gerrit Hermans, directed by Tim Trageser. The film stars Oskar Keymer, Lina Hüesker, Anja Kling, Axel Stein, Julia Hartmann, Johannes Zeiler, Andrea Sawatzki, Michael Ostrowski, Otto Waalkes, Georg Sulzer, Maximilian Ehrenreich, Adem Karaduman, Eloi Christ.

Tracklist:

1 The Curse of the Museum
2 Escape
3 Cracks in the Facade
4 Young Love
5 Finding the Portrait
6 The Enchantment
7 Family
8 The Plan
9 Shrunken Parents
10 Encounter at the House
11 Journey to the School
12 The Skeleton
13 The Tower
14 Falling
15 Drones
16 My Body Is Too Old
17 Showdown
18 Back to School

foobar2000 1.3.7 / Dynamic Range Meter 1.1.1
log date: 2019-12-03 01:51:08

––––––––––––––––––––––––––––––––––––––––
Analyzed: Anne-Kathrin Dern / Help, I Shrunk My Parents (Original Motion Picture Soundtrack)
––––––––––––––––––––––––––––––––––––––––

DR Peak RMS Duration Track
––––––––––––––––––––––––––––––––––––––––
DR11 0.00 dB -15.65 dB 3:25 01-The Curse of the Museum
DR10 0.00 dB -13.84 dB 2:58 02-Escape
DR9 0.00 dB -12.93 dB 4:00 03-Cracks in the Facade
DR10 0.00 dB -14.77 dB 3:00 04-Young Love
DR11 0.00 dB -14.07 dB 3:32 05-Finding the Portrait
DR8 0.00 dB -12.34 dB 2:50 06-The Enchantment
DR11 0.00 dB -14.50 dB 2:05 07-Family
DR10 0.00 dB -13.78 dB 3:29 08-The Plan
DR10 0.00 dB -13.57 dB 3:34 09-Shrunken Parents
DR10 0.00 dB -14.18 dB 3:54 10-Encounter at the House
DR9 0.00 dB -13.80 dB 3:06 11-Journey to the School
DR8 0.00 dB -11.93 dB 3:40 12-The Skeleton
DR7 0.00 dB -10.77 dB 2:43 13-The Tower
DR8 0.00 dB -12.01 dB 3:56 14-Falling
DR8 0.00 dB -10.67 dB 2:28 15-Drones
DR9 0.00 dB -12.65 dB 3:08 16-My Body Is Too Old
DR8 0.00 dB -12.90 dB 2:27 17-Showdown
DR9 0.00 dB -12.55 dB 2:43 18-Back to School
––––––––––––––––––––––––––––––––––––––––

Number of tracks: 18
Official DR value: DR9

Samplerate: 44100 Hz
Channels: 2
Bits per sample: 24
Bitrate: 1423 kbps
Codec: FLAC
================================================================================


All thanks go to the original releaser