Aretha Franklin - A Brand New Me: Aretha Franklin (with The Royal Philharmonic Orchestra) (2017) [Official Digital Download]

Posted By: pyatak
Aretha Franklin - A Brand New Me: Aretha Franklin (with The Royal Philharmonic Orchestra) (2017) [Official Digital Download]

Aretha Franklin - A Brand New Me: Aretha Franklin (with The Royal Philharmonic Orchestra) (2017)
FLAC (tracks) 24-bit/44.1 kHz | Front Cover | Time - 51:43 minutes | 598 MB
Pop, R&B, Soul| Label: Rhino, Official Digital Download

In January 1967, a 24-year old Aretha Franklin signed to Atlantic Records and began one of the most legendary runs in music history, releasing five U.S. hit singles in that year alone. Rhino celebrates the 50th anniversary of Franklin’s historic signing with an opportunity to hear her classic Atlantic masters like never before. A BRAND NEW ME: ARETHA FRANKLIN WITH THE ROYAL PHILHARMONIC ORCHESTRA pairs classic vocals from some of the most iconic songs that the Queen of Soul recorded for Atlantic Records with new arrangements performed by The Royal Philharmonic Orchestra, recorded the music at Abbey Road Studios in London, with brand new backing vocals led by Grammy-winning singer Patti Austin. The result is another timeless record that retains the soul, groove, and gospel power of Franklin’s revered talent. Among the standout tracks are newly re-imagined versions of classics like the Billboard #1 R&B hits “Respect,” “Think,” “Don’t Play That Song (You Lied),” and “Angel.” The album was produced by Nick Patrick and Don Reedman, the masterminds behind the massive worldwide success of If I Can Dream: Elvis Presley With The Royal Philharmonic Orchestra, which recently topped the charts in multiple countries and has sold more than 1.5 million copies.

TRACKLIST

1 Think (with The Royal Philharmonic Orchestra) 2:54
2 Don't Play That Song (You Lied) [with The Royal Philharmonic Orchestra] 2:56
3 I Say A Little Prayer (with The Royal Philharmonic Orchestra) 4:18
4 Until You Come Back To Me (That's What I'm Gonna Do) [with The Royal Philharmonic Orchestra] 3:30
5 A Brand New Me (with The Royal Philharmonic Orchestra) 4:19
6 (You Make Me Feel Like) A Natural Woman [with The Royal Philharmonic Orchestra] 3:36
7 Angel (with The Royal Philharmonic Orchestra) 4:42
8 Border Song (Holy Moses) [with The Royal Philharmonic Orchestra] 3:24
9 Let It Be (with The Royal Philharmonic Orchestra) 3:34
10 People Get Ready (with The Royal Philharmonic Orchestra) 4:03
11 Oh Me Oh My (I'm A Fool For You Baby) [with The Royal Philharmonic Orchestra] 4:18
12 You're All I Need To Get By (with The Royal Philharmonic Orchestra) 3:59
13 Son Of A Preacher Man (with The Royal Philharmonic Orchestra) 3:29
14 Respect (with The Royal Philharmonic Orchestra) 2:37

foobar2000 1.3.16 / Dynamic Range Meter 1.1.1
log date: 2017-11-09 21:53:00

––––––––––––––––––––––––––––––––––––––––
Analyzed: Aretha Franklin / A Brand New Me: Aretha Franklin (with The Royal Philharmonic Orchestra)
––––––––––––––––––––––––––––––––––––––––

DR Peak RMS Duration Track
––––––––––––––––––––––––––––––––––––––––
DR9 -0.40 dB -11.88 dB 2:55 01-Think (with The Royal Philharmonic Orchestra)
DR8 -0.57 dB -11.09 dB 2:57 02-Don't Play That Song (You Lied) [with The Royal Philharmonic Orchestra]
DR9 -0.70 dB -12.26 dB 4:18 03-I Say A Little Prayer (with The Royal Philharmonic Orchestra)
DR9 -0.78 dB -11.98 dB 3:30 04-Until You Come Back To Me (That's What I'm Gonna Do) [with The Royal Philharmonic Orchestra]
DR9 -0.41 dB -12.24 dB 4:19 05-A Brand New Me (with The Royal Philharmonic Orchestra)
DR9 -0.81 dB -12.83 dB 3:36 06-(You Make Me Feel Like) A Natural Woman [with The Royal Philharmonic Orchestra]
DR10 -0.67 dB -13.20 dB 4:42 07-Angel (with The Royal Philharmonic Orchestra)
DR9 -0.73 dB -12.77 dB 3:24 08-Border Song (Holy Moses) [with The Royal Philharmonic Orchestra]
DR8 0.00 dB -11.90 dB 3:34 09-Let It Be (with The Royal Philharmonic Orchestra)
DR10 0.00 dB -13.16 dB 4:04 10-People Get Ready (with The Royal Philharmonic Orchestra)
DR9 -0.03 dB -13.30 dB 4:18 11-Oh Me Oh My (I'm A Fool For You Baby) [with The Royal Philharmonic Orchestra]
DR10 -0.56 dB -13.44 dB 3:59 12-You're All I Need To Get By (with The Royal Philharmonic Orchestra)
DR9 -0.66 dB -12.49 dB 3:29 13-Son Of A Preacher Man (with The Royal Philharmonic Orchestra)
DR10 -0.04 dB -11.41 dB 2:37 14-Respect (with The Royal Philharmonic Orchestra)
––––––––––––––––––––––––––––––––––––––––

Number of tracks: 14
Official DR value: DR9

Samplerate: 44100 Hz
Channels: 2
Bits per sample: 24
Bitrate: 1686 kbps
Codec: FLAC
================================================================================



Thanks to the Original customer.