Aretha Franklin - Aretha! (2021) [Official Digital Download 24/96]

Posted By: pyatak
Aretha Franklin - Aretha! (2021) [Official Digital Download 24/96]

Aretha Franklin - Aretha! (2021) [Official Digital Download 24/96]
FLAC (tracks) 24-bit/96 kHz | Front Cover | Time - 51:35 minutes | 908 MB
Soul | Label: RevOla, Official Digital Download

Aretha Louise Franklin (March 25, 1942 – August 16, 2018) was an American singer and pianist. Franklin began her career as a child singing gospel at New Bethel Baptist Church in Detroit, Michigan, where her father C. L. Franklin was a minister. At the age of 18, she embarked on a secular-music career as a recording artist for Columbia Records. While Franklin's career did not immediately flourish, she found acclaim and commercial success after signing with Atlantic Records in 1966. Hit songs such as "I Never Loved a Man (The Way I Love You)," "Respect," "(You Make Me Feel Like) A Natural Woman," "Chain of Fools," "Think," and "I Say a Little Prayer" propelled her past her musical peers. By the end of the 1960s, Franklin had come to be known as the "Queen of Soul."

Franklin continued to record acclaimed albums such as I Never Loved a Man the Way I Love You (1967), Lady Soul (1968), Spirit in the Dark (1970), Young, Gifted and Black (1972), Amazing Grace (1972), and Sparkle (1976) before experiencing problems with her record company. Franklin left Atlantic in 1979 and signed with Arista Records. She appeared in the 1980 film The Blues Brothers before releasing the successful albums Jump to It (1982), Who's Zoomin' Who? (1985), and Aretha (1986) on the Arista label. In 1998, Franklin returned to the Top 40 with the Lauryn Hill-produced song "A Rose Is Still a Rose"; later, she released an album of the same name which was certified gold. That same year, Franklin earned international acclaim for her performance of "Nessun dorma" at the Grammy Awards where she filled in at the last minute for Luciano Pavarotti, who canceled his appearance after the show had already begun. In a widely noted performance, she paid tribute to 2015 honoree Carole King by singing "(You Make Me Feel Like) A Natural Woman" at the Kennedy Center Honors.

TRACKLIST

1. Aretha Franklin - Won't Be Long (Remastered)
2. Aretha Franklin - Over The Rainbow (Remastered)
3. Aretha Franklin - Love Is The Only Thing (Remastered)
4. Aretha Franklin - Sweet Lover (Remastered)
5. Aretha Franklin - All Night Long (Remastered)
6. Aretha Franklin - Who Needs You (Remastered)
7. Aretha Franklin - Right Now! (Remastered)
8. Aretha Franklin - Are You Sure? (Remastered)
9. Aretha Franklin - Maybe I'm A Fool (Remastered)
10. Aretha Franklin - It Ain't Necessarily So (Remastered)
11. Aretha Franklin - By Myself (Remastered)
12. Aretha Franklin - Today I Sing The Blues (Remastered)
13. Aretha Franklin - By Myself (Remastered mono mix)
14. Aretha Franklin - Won't Be Long (Remastered mono mix)
15. Aretha Franklin - All Night Long (Remastered mono mix)
16. Aretha Franklin - Love Is The Only Thing (Remastered mono mix)
17. Aretha Franklin - Right Now! (Remastered mono mix)
18. Aretha Franklin - Today I Sing The Blues (Remastered mono mix)

foobar2000 1.6.2 / Dynamic Range Meter 1.1.1
log date: 2021-06-23 15:59:01

––––––––––––––––––––––––––––––––––––––––
Analyzed: Aretha Franklin / Aretha!
––––––––––––––––––––––––––––––––––––––––

DR Peak RMS Duration Track
––––––––––––––––––––––––––––––––––––––––
DR11 0.00 dB -13.12 dB 3:12 01-Won't Be Long (Remastered)
DR10 0.00 dB -15.81 dB 2:41 02-Over The Rainbow (Remastered)
DR11 -0.50 dB -14.67 dB 2:44 03-Love Is The Only Thing (Remastered)
DR12 -0.68 dB -15.15 dB 3:25 04-Sweet Lover (Remastered)
DR11 -1.53 dB -16.21 dB 3:01 05-All Night Long (Remastered)
DR11 -1.19 dB -12.99 dB 2:50 06-Who Needs You (Remastered)
DR11 0.00 dB -13.91 dB 2:26 07-Right Now! (Remastered)
DR10 -1.20 dB -13.58 dB 2:44 08-Are You Sure? (Remastered)
DR11 0.00 dB -12.99 dB 3:20 09-Maybe I'm A Fool (Remastered)
DR12 0.00 dB -15.04 dB 2:57 10-It Ain't Necessarily So (Remastered)
DR10 0.00 dB -13.95 dB 2:42 11-By Myself (Remastered)
DR11 -0.16 dB -14.06 dB 2:47 12-Today I Sing The Blues (Remastered)
DR10 -0.64 dB -14.99 dB 2:42 13-By Myself (Remastered mono mix)
DR11 -0.90 dB -13.63 dB 2:59 14-Won't Be Long (Remastered mono mix)
DR11 -0.73 dB -16.10 dB 3:08 15-All Night Long (Remastered mono mix)
DR12 -0.56 dB -15.08 dB 2:45 16-Love Is The Only Thing (Remastered mono mix)
DR11 -1.16 dB -15.09 dB 2:24 17-Right Now! (Remastered mono mix)
DR11 0.00 dB -13.91 dB 2:48 18-Today I Sing The Blues (Remastered mono mix)
––––––––––––––––––––––––––––––––––––––––

Number of tracks: 18
Official DR value: DR11

Samplerate: 96000 Hz
Channels: 2
Bits per sample: 24
Bitrate: 1981 kbps
Codec: FLAC
================================================================================



Thanks to the Original customer.