Aretha Franklin - The Tender, The Moving, The Swinging! (1962/2021) [Official Digital Download 24/96]

Posted By: pyatak
Aretha Franklin - The Tender, The Moving, The Swinging! (1962/2021) [Official Digital Download 24/96]

Aretha Franklin - The Tender, The Moving, The Swinging! (1962/2021) [Official Digital Download 24/96]
FLAC (tracks) 24-bit/96 kHz | Front Cover | Time - 59:08 minutes | 994 MB
Soul | Label: RevOla, Official Digital Download

The Tender, the Moving, the Swinging Aretha Franklin is the third studio album by American singer Aretha Franklin, released in 1962 by Columbia Records. It was her first album to achieve any commercial success, reaching number 69 on the Billboard pop album charts. Unlike its predecessor, however, it did not have a hit single. The album was recorded at Columbia Recording Studio, in New York City.

TRACKLIST

1. Aretha Franklin - Don't Cry, Baby (Remastered)
2. Aretha Franklin - Try A Little Tenderness (Remastered)
3. Aretha Franklin - I Apologize (Remastered)
4. Aretha Franklin - Without The One You Love (Remastered)
5. Aretha Franklin - Look For The Silver Lining (Remastered)
6. Aretha Franklin - I'm Sitting On Top Of The World (Remastered)
7. Aretha Franklin - Just For A Thrill (Remastered)
8. Aretha Franklin - God Bless The Child (Remastered)
9. Aretha Franklin - I'm Wandering (Remastered)
10. Aretha Franklin - How Deep Is the Ocean? (Remastered)
11. Aretha Franklin - I Don't Know You Anymore (Remastered)
12. Aretha Franklin - Lover Come Back To Me (Remastered)
13. Aretha Franklin - Trouble In Mind (mono mix Remastered)
14. Aretha Franklin - Without The One You Love (mono mix Remastered)
15. Aretha Franklin - Don't Cry, Baby (mono mix Remastered)
16. Aretha Franklin - I'm Wandering (mono mix Remastered)
17. Aretha Franklin - Try A Little Tenderness (mono mix Remastered)
18. Aretha Franklin - I Apologize (mono mix Remastered)
19. Aretha Franklin - Lover Come Back To Me (mono mix Remastered)
20. Aretha Franklin - I Don't Know You Anymore (mono mix Remastered)

foobar2000 1.6.2 / Dynamic Range Meter 1.1.1
log date: 2021-06-16 13:50:18

––––––––––––––––––––––––––––––––––––––––
Analyzed: Aretha Franklin / The Tender, The Moving, The Swinging!
––––––––––––––––––––––––––––––––––––––––

DR Peak RMS Duration Track
––––––––––––––––––––––––––––––––––––––––
DR12 -0.33 dB -15.22 dB 3:25 01-Don't Cry, Baby (Remastered)
DR12 -1.80 dB -17.26 dB 3:19 02-Try A Little Tenderness (Remastered)
DR11 -0.35 dB -14.87 dB 2:57 03-I Apologize (Remastered)
DR11 -2.14 dB -17.17 dB 2:51 04-Without The One You Love (Remastered)
DR11 -2.18 dB -17.30 dB 3:07 05-Look For The Silver Lining (Remastered)
DR12 -0.32 dB -15.34 dB 2:45 06-I'm Sitting On Top Of The World (Remastered)
DR10 -2.57 dB -16.12 dB 2:35 07-Just For A Thrill (Remastered)
DR11 -1.48 dB -16.57 dB 3:06 08-God Bless The Child (Remastered)
DR13 -0.27 dB -16.94 dB 3:30 09-I'm Wandering (Remastered)
DR11 -0.41 dB -15.62 dB 2:51 10-How Deep Is the Ocean? (Remastered)
DR11 -0.30 dB -15.22 dB 2:53 11-I Don't Know You Anymore (Remastered)
DR12 -0.33 dB -14.06 dB 2:36 12-Lover Come Back To Me (Remastered)
DR12 -0.35 dB -14.08 dB 2:16 13-Trouble In Mind (mono mix Remastered)
DR11 -1.39 dB -15.66 dB 2:48 14-Without The One You Love (mono mix Remastered)
DR11 -2.53 dB -14.93 dB 3:16 15-Don't Cry, Baby (mono mix Remastered)
DR11 -1.50 dB -14.81 dB 3:27 16-I'm Wandering (mono mix Remastered)
DR12 -1.71 dB -16.54 dB 3:16 17-Try A Little Tenderness (mono mix Remastered)
DR12 -1.56 dB -15.61 dB 2:54 18-I Apologize (mono mix Remastered)
DR11 -2.29 dB -15.41 dB 2:36 19-Lover Come Back To Me (mono mix Remastered)
DR12 -1.64 dB -16.87 dB 2:48 20-I Don't Know You Anymore (mono mix Remastered)
––––––––––––––––––––––––––––––––––––––––

Number of tracks: 20
Official DR value: DR12

Samplerate: 96000 Hz
Channels: 2
Bits per sample: 24
Bitrate: 1846 kbps
Codec: FLAC
================================================================================



Thanks to the Original customer.