Ashley McBryde - Girl Going Nowhere (2018) [Official Digital Download 24/48]

Posted By: pyatak
Ashley McBryde - Girl Going Nowhere (2018) [Official Digital Download 24/48]

Ashley McBryde - Girl Going Nowhere (2018) [Official Digital Download 24/48]
FLAC (tracks) 24-bit/48 kHz | Front Cover | Time - 40:28 minutes | 491 MB
Pop, Country | Label: Atlantic/Warner Music Nashville , Official Digital Download

Back in high school in Mammoth Springs, Arkansas, an Algebra teacher once tried to crush Ashley McBryde's dreams of being a songwriter by telling her she'd never amount to anything. Years later, McBryde turned that moment into a song and that song into the title of her highly anticipated new record Girl Going Nowhere, out March 30th. Now that McBryde is opening shows for Eric Church, Chris Stapleton and Miranda Lambert, playing the Grand Ole Opry and seeing her single "A Little Dive Bar in Dahlonega" make waves on the streaming charts, Girl Going Nowhere is less of a kiss-off to those who didn't believe and more a testament to keeping faith in yourself above all else.

TRACKLIST

1. Girl Goin' Nowhere
2. Radioland
3. American Scandal
4. Southern Babylon
5. The Jacket
6. Livin' Next To Leroy
7. A Little Dive Bar in Dahlonega
8. Andy (I Can't Live Without You)
9. El Dorado
10. Tired of Being Happy
11. Home Sweet Highway

foobar2000 1.3.16 / Dynamic Range Meter 1.1.1
log date: 2018-03-29 16:30:12

––––––––––––––––––––––––––––––––––––––––
Analyzed: Ashley McBryde / Girl Going Nowhere
––––––––––––––––––––––––––––––––––––––––

DR Peak RMS Duration Track
––––––––––––––––––––––––––––––––––––––––
DR12 -0.21 dB -15.33 dB 3:26 01-Girl Goin' Nowhere
DR8 0.00 dB -9.82 dB 3:06 02-Radioland
DR7 -0.06 dB -9.13 dB 4:02 03-American Scandal
DR10 -0.45 dB -12.99 dB 4:06 04-Southern Babylon
DR9 0.00 dB -10.96 dB 2:40 05-The Jacket
DR7 0.00 dB -8.56 dB 4:31 06-Livin' Next To Leroy
DR9 -0.75 dB -11.66 dB 3:29 07-A Little Dive Bar in Dahlonega
DR15 -0.68 dB -19.06 dB 3:53 08-Andy (I Can't Live Without You)
DR7 0.00 dB -8.19 dB 3:59 09-El Dorado
DR6 0.00 dB -7.71 dB 3:49 10-Tired of Being Happy
DR5 0.00 dB -8.38 dB 3:28 11-Home Sweet Highway
––––––––––––––––––––––––––––––––––––––––

Number of tracks: 11
Official DR value: DR8

Samplerate: 48000 Hz
Channels: 2
Bits per sample: 24
Bitrate: 1676 kbps
Codec: FLAC
================================================================================



Thanks to the Original customer.