Tags
Language
Tags

Astrud Gilberto - That Girl from Ipanema (1977/2022) [Official Digital Download 24/96]

Posted By: pyatak
Astrud Gilberto - That Girl from Ipanema (1977/2022) [Official Digital Download 24/96]

Astrud Gilberto - That Girl from Ipanema (1977/2022) [Official Digital Download 24/96]
FLAC (tracks) 24-bit/96 kHz | Front Cover | Time - 35:22 minutes | 659 MB
Bossa Nova, Latin Jazz | Studio Master, Official Digital Download

Legendary Brazilian singer Astrud Gilberto presents her 1977 album That Girl from Ipanema, featuring her signature song of the same name. Audio Fidelity presents this legacy recording in stunning modern clarity with its remastering and digital transfer process.

TRACKLIST

1. Astrud Gilberto - The Girl from Ipanema
2. Astrud Gilberto - Meu Pião
3. Astrud Gilberto - Far Away
4. Astrud Gilberto - We'll Make Today Last Night Again
5. Astrud Gilberto - Black Magic (a Gira)
6. Astrud Gilberto - All I've Got
7. Astrud Gilberto - Love for Sale
8. Astrud Gilberto - Wanting You
9. Astrud Gilberto - The Puppy Song
10. Astrud Gilberto - Mamae Eu Quero / Chica Chica Boom Chic

foobar2000 1.6.2 / Dynamic Range Meter 1.1.1
log date: 2022-05-14 07:14:22

––––––––––––––––––––––––––––––––––––––––
Analyzed: Astrud Gilberto / That Girl from Ipanema
––––––––––––––––––––––––––––––––––––––––

DR Peak RMS Duration Track
––––––––––––––––––––––––––––––––––––––––
DR13 -1.22 dB -15.56 dB 3:16 01-The Girl from Ipanema
DR13 -1.21 dB -15.58 dB 3:41 02-Meu Pião
DR11 -1.59 dB -16.08 dB 4:23 03-Far Away
DR12 -1.22 dB -15.44 dB 3:06 04-We'll Make Today Last Night Again
DR13 -1.22 dB -16.21 dB 3:03 05-Black Magic (a Gira)
DR13 -1.21 dB -15.17 dB 6:10 06-All I've Got
DR13 -1.22 dB -15.65 dB 3:12 07-Love for Sale
DR13 -1.22 dB -17.21 dB 2:38 08-Wanting You
DR12 -1.46 dB -15.45 dB 2:52 09-The Puppy Song
DR13 -1.22 dB -15.94 dB 3:02 10-Mamae Eu Quero / Chica Chica Boom Chic
––––––––––––––––––––––––––––––––––––––––

Number of tracks: 10
Official DR value: DR12

Samplerate: 96000 Hz
Channels: 2
Bits per sample: 24
Bitrate: 2648 kbps
Codec: FLAC
================================================================================



Thanks to the Original customer.