Immanuel Richter & Hans Jürg Bättig - At the Peak (2019) [Official Digital Download 24/96]

Posted By: SERTiL
Immanuel Richter & Hans Jürg Bättig - At the Peak (2019) [Official Digital Download 24/96]

Immanuel Richter & Hans Jürg Bättig - At the Peak (2019)
FLAC (tracks) 24-bit/96 kHz | Time - 64:01 minutes | 0.98 GB
Studio Master, Official Digital Download | Artwork: Digital Booklet

Trumpet and organ has us immediately thinking of trumpet tunes and trumpet voluntaries, of majestic, bombastic music by Henry Purcell and George Frideric Handel, of mixtures and reed stops that resound so strongly as to make church walls tremble. The music on this CD does not adhere to those stereotypes: it is very delicate, light, transparent, elegant. If one was to pigeon-hole it, the choice of genre would be difficult. From a musical point of view, it is located between the Baroque and the Classical eras, a period whose various art forms are given numerous labels: early Classical, sensitive style, Rococo, Sturm und Drang. In addition to numerous performances as a soloist and chamber musician, Immanuel Richter is also principal trumpet player of the Sinfonieorchester Basel. Together with Hans Jürg Bättig on the organ, the trumpeter has slowly approached the works of this CD, often playing them in concerts in order to become completely familiar with the music. There is no instrument in his eyes that fits the trumpet better than the organ. The timbres merge into each other and complement each other wonderfully.

Tracklist:
1. Trumpet Concerto No. 1 in E-Flat Major (Arr. H.J. Bättig & I. Richter): I. Allegro 04:36
2. Trumpet Concerto No. 1 in E-Flat Major (Arr. H.J. Bättig & I. Richter): II. Larghetto 04:27
3. Trumpet Concerto No. 1 in E-Flat Major (Arr. H.J. Bättig & I. Richter): III. Vivace 03:50
4. Trumpet Concerto No. 1 in C Major, P. 34 (Arr. H.J. Bättig & I. Richter): I. Adagio 05:55
5. Trumpet Concerto No. 1 in C Major, P. 34 (Arr. H.J. Bättig & I. Richter): II. Allegro molto 04:11
6. Trumpet Concerto No. 2 in E-Flat Major (Arr. H.J. Bättig & I. Richter): I. Allegro ma moderatamente 03:32
7. Trumpet Concerto No. 2 in E-Flat Major (Arr. H.J. Bättig & I. Richter): II. Largo 04:02
8. Trumpet Concerto No. 2 in E-Flat Major (Arr. H.J. Bättig & I. Richter): III. Allegro 02:46
9. Trumpet Concerto in D Major (Arr. H.J. Bättig & I. Richter): I. Adagio 04:47
10. Trumpet Concerto in D Major (Arr. H.J. Bättig & I. Richter): II. Allegro moderato 03:40
11. Trumpet Concerto No. 3 in D Major (Arr. H.J. Bättig & I. Richter): I. Allegro ma non troppo 02:30
12. Trumpet Concerto No. 3 in D Major (Arr. H.J. Bättig & I. Richter): II. Largo 04:40
13. Trumpet Concerto No. 3 in D Major (Arr. H.J. Bättig & I. Richter): III. Vivace 02:06
14. Trumpet Concerto in E-Flat Major (Arr. H.J. Bättig & I. Richter): I. Allegro moderato 05:39
15. Trumpet Concerto in E-Flat Major (Arr. H.J. Bättig & I. Richter): II. Adagio 04:08
16. Trumpet Concerto in E-Flat Major (Arr. H.J. Bättig & I. Richter): III. Rondo 03:01

Personnel:
Hans Jürg Bättig, organ
Immanuel Richter, piccolo trumpet

foobar2000 1.3.7 / Dynamic Range Meter 1.1.1
log date: 2019-01-11 21:26:56

––––––––––––––––––––––––––––––––––––––––
Analyzed: Immanuel Richter & Hans Jürg Bättig / At the Peak
––––––––––––––––––––––––––––––––––––––––

DR Peak RMS Duration Track
––––––––––––––––––––––––––––––––––––––––
DR13 -2.67 dB -20.89 dB 4:37 01-Trumpet Concerto No. 1 in E-Flat Major (Arr. H.J. Bättig & I. Richter) : I. Allegro
DR11 -3.19 dB -20.95 dB 4:27 02-Trumpet Concerto No. 1 in E-Flat Major (Arr. H.J. Bättig & I. Richter) : II. Larghetto
DR13 -3.11 dB -20.39 dB 3:53 03-Trumpet Concerto No. 1 in E-Flat Major (Arr. H.J. Bättig & I. Richter) : III. Vivace
DR12 -4.75 dB -21.66 dB 5:56 04-Trumpet Concerto No. 1 in C Major, P. 34 (Arr. H.J. Bättig & I. Richter) : I. Adagio
DR14 -0.97 dB -19.45 dB 4:14 05-Trumpet Concerto No. 1 in C Major, P. 34 (Arr. H.J. Bättig & I. Richter) : II. Allegro molto
DR13 -3.27 dB -21.18 dB 3:32 06-Trumpet Concerto No. 2 in E-Flat Major (Arr. H.J. Bättig & I. Richter) : I. Allegro ma moderatamente
DR12 -5.27 dB -22.75 dB 4:03 07-Trumpet Concerto No. 2 in E-Flat Major (Arr. H.J. Bättig & I. Richter) : II. Largo
DR13 -2.98 dB -21.55 dB 2:50 08-Trumpet Concerto No. 2 in E-Flat Major (Arr. H.J. Bättig & I. Richter) : III. Allegro
DR13 -5.17 dB -22.90 dB 4:47 09-Trumpet Concerto in D Major (Arr. H.J. Bättig & I. Richter) : I. Adagio
DR13 -2.46 dB -20.28 dB 3:41 10-Trumpet Concerto in D Major (Arr. H.J. Bättig & I. Richter) : II. Allegro moderato
DR12 -4.04 dB -22.75 dB 2:30 11-Trumpet Concerto No. 3 in D Major (Arr. H.J. Bättig & I. Richter) : I. Allegro ma non troppo
DR15 -0.40 dB -22.50 dB 4:40 12-Trumpet Concerto No. 3 in D Major (Arr. H.J. Bättig & I. Richter) : II. Largo
DR14 -3.42 dB -21.76 dB 2:09 13-Trumpet Concerto No. 3 in D Major (Arr. H.J. Bättig & I. Richter) : III. Vivace
DR12 -3.59 dB -20.58 dB 5:40 14-Trumpet Concerto in E-Flat Major (Arr. H.J. Bättig & I. Richter) : I. Allegro moderato
DR12 -4.94 dB -20.65 dB 4:08 15-Trumpet Concerto in E-Flat Major (Arr. H.J. Bättig & I. Richter) : II. Adagio
DR13 -0.53 dB -18.11 dB 3:01 16-Trumpet Concerto in E-Flat Major (Arr. H.J. Bättig & I. Richter) : III. Rondo
––––––––––––––––––––––––––––––––––––––––

Number of tracks: 16
Official DR value: DR13

Samplerate: 96000 Hz
Channels: 2
Bits per sample: 24
Bitrate: 2299 kbps
Codec: FLAC
================================================================================


Thanks to the Original customer.