Barclay James Harvest ‎– Live (1974 Double LP/FLAC) In 24bit/96kHz & 16bit/44kHz

Posted By: Fran Solo
Barclay James Harvest ‎– Live (1974 Double LP/FLAC) In 24bit/96kHz & 16bit/44kHz

Barclay James Harvest ‎– Live
Vinyl | LOG | CUE | FLAC | Tags | Full LP Cover (1:1)
24bit/96kHz: 1.62gb – 16bit/44kHz: 462mb
Genre: Progressive-Rock | Label: Polydor / 2679 034 | German Pressing | Release: 1974
Barclay James Harvest ‎– Live (1974 Double LP/FLAC) In 24bit/96kHz & 16bit/44kHz

Barclay James Harvest ‎– Live (1974 Double LP/FLAC) In 24bit/96kHz & 16bit/44kHz

Barclay James Harvest ‎– Live (1974 Double LP/FLAC) In 24bit/96kHz & 16bit/44kHz

Barclay James Harvest ‎– Live (1974 Double LP/FLAC) In 24bit/96kHz & 16bit/44kHz

Side 1
Summer Soldier 10:15
Medicine Man 10:10
Side 2
Crazy City 4:54
After The Day 7:22
The Great 1974 Mining Disaster 6:27
Side 3
Galadriel 3:09
Negative Earth 6:20
She Said 8:42
Side 4
Paper Wings 4:15
For No One 5:47
Mockingbird 9:35

———————————————————————————————-
Analyzed folder: Barclay James Harvest ‎– Live (LP 1)
———————————————————————————————-
DR Peak RMS Filename
———————————————————————————————-

DR13 -2.45 dB -18.39 dB 01 Barclay James Harvest – LADO 1- Summer Soldier.wav
DR13 -2.40 dB -17.81 dB 02 Barclay James Harvest – Medicine Man.wav
DR14 -2.10 dB -19.60 dB 03 Barclay James Harvest – LADO 2- Crazy City.wav
DR13 -4.29 dB -21.32 dB 04 Barclay James Harvest – After The Day.wav
DR14 -4.43 dB -22.07 dB 05 Barclay James Harvest – The Great 1974 Mining Desaster.wav
———————————————————————————————-

Number of files: 5
Official DR value: DR14

==============================================================================================

———————————————————————————————-
Analyzed folder: Barclay James Harvest ‎– Live (LP 2)
———————————————————————————————-
DR Peak RMS Filename
———————————————————————————————-

DR13 -10.68 dB -27.31 dB 01 Barclay James Harvest – LADO 3- Galadriel.wav
DR16 -3.69 dB -21.84 dB 02 Barclay James Harvest – Negative Earth.wav
DR12 -2.21 dB -18.04 dB 03 Barclay James Harvest – She Said.wav
DR12 -3.38 dB -19.10 dB 04 Barclay James Harvest – LADO 4- Paper Wings.wav
DR14 -3.94 dB -19.51 dB 05 Barclay James Harvest – For No One.wav
DR12 -2.12 dB -19.78 dB 06 Barclay James Harvest – Mockingbird.wav
———————————————————————————————-

Number of files: 6
Official DR value: DR13

==============================================================================================

This live from “Barclay James Harvest” (BJH) is a cornerstone in regard to progressive rock, all songs it are a little masterpieces.
At one time I said that the BJH not possess great voices, but they manage to get out of the inertia thanks to its beautiful compositions and vocal arrangements. Many songs presented here are in their best album (in my opinion) “Everyone is everybody else”. Here the instrument looks is the Mellotron, giving the feeling of string orchestra.
Songs that advise hear:
-Galadriel (what a beautiful ballad!)
-For no one
-Negative Earth
-Paper Wings
-The Great 1974 Mining Disaster

I call it a masterpiece of progressive rock.

Spanish.
Este recital de “Barclay James Harvest” (BJH) es una pieza fundamental en lo que se refiere al rock-progresivo, todas las canciones que lo componen son pequeñas obras maestras.
En alguna oportunidad expresé que los BJH no son poseedores de grandes voces, pero logran salir de la inercia gracias a sus hermosas composiciones y arreglos vocales. Muchas de las canciones presentadas aquí aparecen en su mejor álbum (a mi jucio) “Everyone is everybody else”. Aquí el instrumento que se luce es el Mellotron, dando la sensación de orquesta de cuerdas.
Canciones que aconsejo escuchar:
-Galadriel (preciosa balada)
-For no one
-Negative Earth
-Paper Wings
-The Great 1974 Mining Disaster

Yo lo califico como una obra maestra del rock progresivo.
Fran Solo, MMXIII

Equipment
Vinyl rip, mastered and audio correction: Fran Solo
Direct Drive Turntable: Marantz 6170
Cartridge: SHURE M97xE (audiophile)
Edition: Adobe Audition CS 5.5 & Amadeus PRO - xACT & XLD (lossless)
Redbook Conversion: Izotope RX Advanced
Clickrepair with Izotope RX Advanced: Yes
Password: WITHOUT PASSWORD
Scans Full & Corrected LP Cover, 1:1
(All included in 300dpi: front/back - gatefold outside/inside - booklet - insert - envelope - labels, etc.): Fran Solo


Vinyl / CUE/ FLAC/ High Definition Cover - 1.62gb RAR & 462mb ZIP: