Subcategories

Collegium Vocale Gent & Philippe Herrewegh - Bach Leipzig Cantatas BWV 101, BWV 103 & BWV 115 (2017) [24/96]

Posted By: SERTiL
Collegium Vocale Gent & Philippe Herrewegh - Bach Leipzig Cantatas BWV 101, BWV 103 & BWV 115 (2017) [24/96]

Collegium Vocale Gent & Philippe Herrewegh - Bach Leipzig Cantatas BWV 101, BWV 103 & BWV 115 (2017)
FLAC (tracks) 24-bit/96 kHz | Time - 62:00 minutes | 1.07 GB
Studio Master, Official Digital Download | Artwork: Digital booklet

For the third time on the Phi label, Philippe Herreweghe gives us the opportunity to (re)discover three cantatas by Johann Sebastian Bach – Nimm von uns, Herr, du treuer Gott, BWV 101, Ihr werdet weinen und heulen, BWV 103 and Mache dich, mein Geist, bereit, BWV 115. After two albums of cantatas written during the composer’s first year in Leipzig (LPH006 and LPH012), the Belgian conductor and his Collegium Vocale Gent, orchestra and choir, will be performing three cantatas he composed during his second year as Kantor at St Thomas’s. The choir and vocal soloists are once again challenged to produce performances of subtlety and refined virtuosity, and the instrumentarium is as rich and colourful as those heard previously in this series.

This album, a genuine delight for aficionados and novices alike, precedes a further disc of cantatas which will be released in spring 2018.

TRACKLIST

Johann Sebastian Bach (1685-1750)

01. Nimm von uns, Herr, du treuer Gott in D Minor, BWV 101: I. Coro "Nimm von uns, Herr, du treuer Gott"
02. Nimm von uns, Herr, du treuer Gott in D Minor, BWV 101: II. Aria "Handle nicht nach deinen Rechten"
03. Nimm von uns, Herr, du treuer Gott in D Minor, BWV 101: III. Recitativo e choral "Ach! Herr Gott, durch die Treue dein"
04. Nimm von uns, Herr, du treuer Gott in D Minor, BWV 101: IV. Aria "Warum willst du so zornig sein?"
05. Nimm von uns, Herr, du treuer Gott in D Minor, BWV 101: V. Recitativo e choral "Die Sünd hat uns verderbet sehr"
06. Nimm von uns, Herr, du treuer Gott in D Minor, BWV 101: VI. Aria "Gedenk an Jesu bittern Tod"
07. Nimm von uns, Herr, du treuer Gott in D Minor, BWV 101: VII. Choral "Leit uns mit deiner rechten Hand"
08. Mache dich, mein Geist, bereit in G Major, BWV 115: I. Coro "Mache dich, mein Geist, bereit"
09. Mache dich, mein Geist, bereit in G Major, BWV 115: II. Aria "Ach schläfrige Seele, wie? ruhest du noch?"
10. Mache dich, mein Geist, bereit in G Major, BWV 115: III. Recitativo " Gott, so vor deine Seele wacht"
11. Mache dich, mein Geist, bereit in G Major, BWV 115: IV. Aria "Bete aber auch dabei"
12. Mache dich, mein Geist, bereit in G Major, BWV 115: V. Recitativo "Er sehnet sich nach unserm Schreien"
13. Mache dich, mein Geist, bereit in G Major, BWV 115: VI. Choral "Drum so laßt uns immerdar"
14. Ihr werdet weinen und heulen in B Minor, BWV 103: I. Coro e arioso "Ihr werdet weinen und heulen"
15. Ihr werdet weinen und heulen in B Minor, BWV 103: II. Recitativo "Wer sollte nicht in Klagen untergehn"
16. Ihr werdet weinen und heulen in B Minor, BWV 103: III. Aria "Kein Arzt ist außer dir zu finden"
17. Ihr werdet weinen und heulen in B Minor, BWV 103: IV. Recitativo "Du wirst mich nach der Angst auch wiederum erquicken"
18. Ihr werdet weinen und heulen in B Minor, BWV 103: V. Aria "Erholet euch, betrübte Sinnen"
19. Ihr werdet weinen und heulen in B Minor, BWV 103: VI. Choral "Ich hab dich einen Augenblick"

PERSONNEL
Dorothee Mields, soprano
Damien Guillon, countertenor
Thomas Hobbs, tenor
Peter Kooij, bass
Collegium Vocale Gent
Philippe Herreweghe, direction

foobar2000 1.3.7 / Dynamic Range Meter 1.1.1
log date: 2017-09-20 16:47:39

––––––––––––––––––––––––––––––––––––––––
Analyzed: Collegium Vocale Gent, Philippe Herreweghe / Bach: Leipzig Cantatas BWV 101, BWV 103 & BWV 115 (1-5)
Damien Guillon, Collegium Vocale Gent, Philippe Herreweghe / Bach: Leipzig Cantatas BWV 101, BWV 103 & BWV 115 (6-8)
Dorothee Mields, Collegium Vocale Gent, Philippe Herreweghe / Bach: Leipzig Cantatas BWV 101, BWV 103 & BWV 115 (9-10)
Dorothee Mields, Damien Guillon, Collegium Vocale Gent, Philippe Herreweghe / Bach: Leipzig Cantatas BWV 101, BWV 103 & BWV 115 (11)
Peter Kooij, Collegium Vocale Gent, Philippe Herreweghe / Bach: Leipzig Cantatas BWV 101, BWV 103 & BWV 115 (12-14)
Thomas Hobbs, Collegium Vocale Gent, Philippe Herreweghe / Bach: Leipzig Cantatas BWV 101, BWV 103 & BWV 115 (15-19)
––––––––––––––––––––––––––––––––––––––––

DR Peak RMS Duration Track
––––––––––––––––––––––––––––––––––––––––
DR13 -0.35 dB -18.56 dB 7:44 01-Nimm von uns, Herr, du treuer Gott in D Minor, BWV 101: I. Coro "Nimm von uns, Herr, du treuer Gott"
DR11 -1.18 dB -17.55 dB 0:56 07-Nimm von uns, Herr, du treuer Gott in D Minor, BWV 101: VII. Choral "Leit uns mit deiner rechten Hand"
DR14 -0.10 dB -20.38 dB 3:59 08-Mache dich, mein Geist, bereit in G Major, BWV 115: I. Coro "Mache dich, mein Geist, bereit"
DR12 -0.46 dB -18.04 dB 0:54 13-Mache dich, mein Geist, bereit in G Major, BWV 115: VI. Choral "Drum so laßt uns immerdar"
DR11 -2.65 dB -18.51 dB 1:04 19-Ihr werdet weinen und heulen in B Minor, BWV 103: VI. Choral "Ich hab dich einen Augenblick"
DR18 -0.93 dB -22.43 dB 7:54 09-Mache dich, mein Geist, bereit in G Major, BWV 115: II. Aria "Ach schläfrige Seele, wie? ruhest du noch?"
DR14 -5.30 dB -24.60 dB 4:04 16-Ihr werdet weinen und heulen in B Minor, BWV 103: III. Aria "Kein Arzt ist außer dir zu finden"
DR11 -8.27 dB -24.62 dB 0:35 17-Ihr werdet weinen und heulen in B Minor, BWV 103: IV. Recitativo "Du wirst mich nach der Angst auch wiederum erquicken"
DR14 -4.09 dB -22.54 dB 2:11 03-Nimm von uns, Herr, du treuer Gott in D Minor, BWV 101: III. Recitativo e choral "Ach! Herr Gott, durch die Treue dein"
DR16 -1.17 dB -22.24 dB 6:18 11-Mache dich, mein Geist, bereit in G Major, BWV 115: IV. Aria "Bete aber auch dabei"
DR14 -3.38 dB -22.11 dB 5:58 06-Nimm von uns, Herr, du treuer Gott in D Minor, BWV 101: VI. Aria "Gedenk an Jesu bittern Tod"
DR15 -1.97 dB -21.22 dB 4:13 04-Nimm von uns, Herr, du treuer Gott in D Minor, BWV 101: IV. Aria "Warum willst du so zornig sein?"
DR15 -5.39 dB -23.59 dB 1:08 10-Mache dich, mein Geist, bereit in G Major, BWV 115: III. Recitativo " Gott, so vor deine Seele wacht"
DR14 -0.46 dB -18.43 dB 5:15 14-Ihr werdet weinen und heulen in B Minor, BWV 103: I. Coro e arioso "Ihr werdet weinen und heulen"
DR14 -7.90 dB -26.29 dB 3:29 02-Nimm von uns, Herr, du treuer Gott in D Minor, BWV 101: II. Aria "Handle nicht nach deinen Rechten"
DR14 -4.16 dB -23.67 dB 2:08 05-Nimm von uns, Herr, du treuer Gott in D Minor, BWV 101: V. Recitativo e choral "Die Sünd hat uns verderbet sehr"
DR14 -4.20 dB -23.56 dB 0:52 12-Mache dich, mein Geist, bereit in G Major, BWV 115: V. Recitativo "Er sehnet sich nach unserm Schreien"
DR14 -5.39 dB -24.29 dB 0:40 15-Ihr werdet weinen und heulen in B Minor, BWV 103: II. Recitativo "Wer sollte nicht in Klagen untergehn"
DR14 -3.93 dB -21.53 dB 2:48 18-Ihr werdet weinen und heulen in B Minor, BWV 103: V. Aria "Erholet euch, betrübte Sinnen"
––––––––––––––––––––––––––––––––––––––––

Number of tracks: 19
Official DR value: DR14

Samplerate: 96000 Hz
Channels: 2
Bits per sample: 24
Bitrate: 2517 kbps
Codec: FLAC
================================================================================


Thanks to the Original customer.