Arcangelo & Jonathan Cohen - Bach: Magnificats (2018) [Official Digital Download 24/96]

Posted By: SERTiL
Arcangelo & Jonathan Cohen - Bach: Magnificats (2018) [Official Digital Download 24/96]

Arcangelo & Jonathan Cohen - Bach: Magnificats (2018)
FLAC (tracks) 24-bit/96 kHz | Time - 76:37 minutes | 1.37 GB
Studio Master, Official Digital Download | Artwork: Digital Booklet

No fewer than three Bachs—father and two sons—and three wonderful versions of the Magnificat written over the course of the eighteenth century: one setting very familiar, the other two much less so.



Tracklist:
01. Magnificat, BWV 243: I. Chorus: Magnificat anima mea (02:54)
02. Magnificat, BWV 243: II. Aria: Et exsultavit spiritus meus (02:13)
03. Magnificat, BWV 243: III. Aria & Chorus: Quia respexit – Omnes generationes (03:41)
04. Magnificat, BWV 243: IV. Aria: Quia fecit mihi magna (01:51)
05. Magnificat, BWV 243: V. Duet: Et misericoridia (03:08)
06. Magnificat, BWV 243: VI. Chorus: Fecit potentiam (01:42)
07. Magnificat, BWV 243: VII. Aria: Deposuit potentes de sede (01:56)
08. Magnificat, BWV 243: VIII. Aria: Esurientes implevit bonis (02:44)
09. Magnificat, BWV 243: IX. Terzet: Suscepit Israel (01:55)
10. Magnificat, BWV 243: X. Chorus: Sicut locutus est (01:28)
11. Magnificat, BWV 243: XI. Chorus: Gloria Patri (02:04)
12. Magnificat, E22: I. Chorus with solo: Magnificat anima mea (03:13)
13. Magnificat, E22: II. Chorus: Et misericordia eius (01:02)
14. Magnificat, E22: III. Chorus with soli: Fecit potentiam (03:15)
15. Magnificat, E22: IV. Chorus: Gloria Patri (01:23)
16. Magnificat, E22: V. Chorus: Et in saecula saeculorum (01:33)
17. Magnificat, H. 772: I. Chorus: Magnificat anima mea (03:13)
18. Magnificat, H. 772: II. Aria: Quia respexit (05:41)
19. Magnificat, H. 772: III. Aria: Quia fecit mihi magna (03:54)
20. Magnificat, H. 772: IV. Chorus with soli: Et misericordia eius (06:45)
21. Magnificat, H. 772: V. Aria: Fecit potentiam (03:51)
22. Magnificat, H. 772: VI. Duet: Deposuit potentes de sede (05:52)
23. Magnificat, H. 772: VII. Aria: Suscepit Israel (04:07)
24. Magnificat, H. 772: VIII. Chorus: Gloria Patri (02:02)
25. Magnificat, H. 772: IX. Chorus: Sicut erat in principio (05:10)

Composers:
Bach, Carl Philipp Emanuel (1714-88)
Bach, Johann Christian (1735-82)
Bach, Johann Sebastian (1685-1750)

Personnel:
Arcangelo
Jonathan Cohen (conductor)

foobar2000 1.3.7 / Dynamic Range Meter 1.1.1
log date: 2018-02-07 20:20:32

––––––––––––––––––––––––––––––––––––––––
Analyzed: Iestyn Davies, Olivia Vermeulen, Joélle Harvey; Jonathan Cohen: Arcangelo / Bach, Bach & Bach: Magnificats (1)
Iestyn Davies, Thomas Walker; Jonathan Cohen: Arcangelo / Bach, Bach & Bach: Magnificats (2)
Iestyn Davies; Jonathan Cohen: Arcangelo / Bach, Bach & Bach: Magnificats (3-4)
Joélle Harvey; Jonathan Cohen: Arcangelo / Bach, Bach & Bach: Magnificats (5-7)
Jonathan Cohen: Arcangelo / Bach, Bach & Bach: Magnificats (8-17)
Olivia Vermeulen, Joélle Harvey; Jonathan Cohen: Arcangelo / Bach, Bach & Bach: Magnificats (18)
Olivia Vermeulen; Jonathan Cohen: Arcangelo / Bach, Bach & Bach: Magnificats (19)
Thomas Bauer; Jonathan Cohen: Arcangelo / Bach, Bach & Bach: Magnificats (20-21)
Thomas Walker, Olivia Vermeulen; Jonathan Cohen: Arcangelo / Bach, Bach & Bach: Magnificats (22)
Thomas Walker, Thomas Bauer, Olivia Vermeulen; Jonathan Cohen: Arcangelo / Bach, Bach & Bach: Magnificats (23)
Thomas Walker; Jonathan Cohen: Arcangelo / Bach, Bach & Bach: Magnificats (24-25)
––––––––––––––––––––––––––––––––––––––––

DR Peak RMS Duration Track
––––––––––––––––––––––––––––––––––––––––
DR12 -5.05 dB -22.19 dB 1:56 09-Bach (JS): Magnificat, BWV243 - Movement 09. Terzet: Suscepit Israel
DR15 -2.42 dB -23.05 dB 3:09 05-Bach (JS): Magnificat, BWV243 - Movement 05. Duet: Et misericordia
DR15 -3.51 dB -22.76 dB 2:45 08-Bach (JS): Magnificat, BWV243 - Movement 08. Aria: Esurientes implevit bonis
DR13 -0.18 dB -18.95 dB 4:07 23-Bach (CPE): Magnificat, H772 - Movement 7. Aria: Suscepit Israel
DR13 -2.23 dB -19.38 dB 3:42 03-Bach (JS): Magnificat, BWV243 - Movement 03. Aria & Chorus: Quia respexit – Omnes generationes
DR13 -0.10 dB -16.55 dB 3:13 12-Bach (JC): Magnificat, E22 - Movement 1. Chorus with solo: Magnificat anima mea
DR13 -0.10 dB -18.58 dB 5:41 18-Bach (CPE): Magnificat, H772 - Movement 2. Aria: Quia respexit
DR11 -2.11 dB -15.59 dB 2:55 01-Bach (JS): Magnificat, BWV243 - Movement 01. Chorus: Magnificat anima mea
DR12 -0.62 dB -15.20 dB 1:42 06-Bach (JS): Magnificat, BWV243 - Movement 06. Chorus: Fecit potentiam
DR13 -0.90 dB -18.20 dB 1:29 10-Bach (JS): Magnificat, BWV243 - Movement 10. Chorus: Sicut locutus est
DR9 -0.10 dB -12.90 dB 2:04 11-Bach (JS): Magnificat, BWV243 - Movement 11. Chorus: Gloria Patri
DR11 -6.23 dB -21.41 dB 1:02 13-Bach (JC): Magnificat, E22 - Movement 2. Chorus: Et misericordia eius
DR13 -2.35 dB -20.55 dB 1:23 15-Bach (JC): Magnificat, E22 - Movement 4. Chorus: Gloria Patri
DR12 -2.64 dB -19.23 dB 1:34 16-Bach (JC): Magnificat, E22 - Movement 5. Chorus: Et in saecula saeculorum
DR11 -0.10 dB -14.39 dB 3:13 17-Bach (CPE): Magnificat, H772 - Movement 1. Chorus: Magnificat anima mea
DR9 -0.10 dB -12.08 dB 2:03 24-Bach (CPE): Magnificat, H772 - Movement 8. Chorus: Gloria Patri
DR10 -0.10 dB -13.91 dB 5:10 25-Bach (CPE): Magnificat, H772 - Movement 9. Chorus: Sicut erat in principio
DR12 -0.10 dB -16.96 dB 6:45 20-Bach (CPE): Magnificat, H772 - Movement 4. Chorus with soli: Et misericordia eius
DR13 -2.40 dB -19.41 dB 2:14 02-Bach (JS): Magnificat, BWV243 - Movement 02. Aria: Et exsultavit spiritus meus
DR15 -2.86 dB -22.42 dB 1:51 04-Bach (JS): Magnificat, BWV243 - Movement 04. Aria: Quia fecit mihi magna
DR15 -0.10 dB -18.27 dB 3:52 21-Bach (CPE): Magnificat, H772 - Movement 5. Aria: Fecit potentiam
DR14 -0.39 dB -19.93 dB 5:53 22-Bach (CPE): Magnificat, H772 - Movement 6. Duet: Deposuit potentes de sede
DR13 -2.01 dB -19.92 dB 3:15 14-Bach (JC): Magnificat, E22 - Movement 3. Chorus with soli: Fecit potentiam
DR15 -0.10 dB -19.45 dB 1:56 07-Bach (JS): Magnificat, BWV243 - Movement 07. Aria: Deposuit potentes de sede
DR15 -0.10 dB -20.36 dB 3:54 19-Bach (CPE): Magnificat, H772 - Movement 3. Aria: Quia fecit mihi magna
––––––––––––––––––––––––––––––––––––––––

Number of tracks: 25
Official DR value: DR13

Samplerate: 96000 Hz
Channels: 2
Bits per sample: 24
Bitrate: 2743 kbps
Codec: FLAC
================================================================================


Thanks to the Original customer.