Boris Begelman - Bach: Sonatas and Partitas for Solo Violin (2017) [Official Digital Download 24/96]

Posted By: SERTiL
Boris Begelman - Bach: Sonatas and Partitas for Solo Violin (2017) [Official Digital Download 24/96]

Boris Begelman - Bach: Sonatas and Partitas for Solo Violin (2017)
FLAC (tracks) 24-bit/96 kHz | Time - 137:38 minutes | 2.85 GB
Studio Master, Official Digital Download | Artwork: Digital Booklet

Violinist Boris Begelman plays the "Himalayas for violinists" (Georges Enescu) on a period instrument by Louis Moitessier from the 1790s. J.S. Bach’s Sonatas and Partitas for solo violin are considered by musicologists and many musicians as the pinnacle of musical achievement, arguably the composer’s most demanding and emotionally penetrating works. They undoubtedly have a kind of iconic status in the violin repertoire. Yet, little is known about the background of these fascinating works and the correlations between the music and Bach’s personal life. The composer’s autograph manuscript is dated in Köthen in 1720, and it is commonly considered as the year when the cycle was completed. In his booklet notes Boris Begelman, who has gone back to the original manuscript sources to offer us his version of a masterpiece of the violin repertoire, presents some personal and interesting thoughts about these musical gems.

Tracklist:

Johann Sebastian Bach (1685 - 1750)

CD1
01. Violin Sonata No. 1 in G Minor, BWV 1001: I. Adagio
02. Violin Sonata No. 1 in G Minor, BWV 1001: II. Fuga. Allegro
03. Violin Sonata No. 1 in G Minor, BWV 1001: III. Siciliana
04. Violin Sonata No. 1 in G Minor, BWV 1001: IV. Presto
05. Violin Partita No. 1 in B Minor, BWV 1002: I. Allemande
06. Violin Partita No. 1 in B Minor, BWV 1002: II. Double
07. Violin Partita No. 1 in B Minor, BWV 1002: III. Courante
08. Violin Partita No. 1 in B Minor, BWV 1002: IV. Double. Presto
09. Violin Partita No. 1 in B Minor, BWV 1002: V. Sarabande
10. Violin Partita No. 1 in B Minor, BWV 1002: VI. Double
11. Violin Partita No. 1 in B Minor, BWV 1002: VII. Tempo di Bourrée
12. Violin Partita No. 1 in B Minor, BWV 1002: VIII. Double
13. Violin Sonata No. 2 in A Minor, BWV 1003: I. Grave
14. Violin Sonata No. 2 in A Minor, BWV 1003: II. Fuga.
15. Violin Sonata No. 2 in A Minor, BWV 1003: III. Andante
16. Violin Sonata No. 2 in A Minor, BWV 1003: IV. Allegro

CD2
01. Violin Partita No. 2 in D Minor, BWV 1004: I. Allemanda
02. Violin Partita No. 2 in D Minor, BWV 1004: II. Corrente
03. Violin Partita No. 2 in D Minor, BWV 1004: III. Sarabanda
04. Violin Partita No. 2 in D Minor, BWV 1004: IV. Giga
05. Violin Partita No. 2 in D Minor, BWV 1004: V. Ciaccona
06. Violin Sonata No. 3 in C Major, BWV 1005: I. Adagio
07. Violin Sonata No. 3 in C Major, BWV 1005: II. Fuga
08. Violin Sonata No. 3 in C Major, BWV 1005: III. Largo
09. Violin Sonata No. 3 in C Major, BWV 1005: IV. Allegro assai
10. Violin Partita No. 3 in E Major, BWV 1006: I. Preludio
11. Violin Partita No. 3 in E Major, BWV 1006: II. Loure
12. Violin Partita No. 3 in E Major, BWV 1006: III. Gavotte en Rondeaux
13. Violin Partita No. 3 in E Major, BWV 1006: IV. Menuet 1-V. Menuet 2
14. Violin Partita No. 3 in E Major, BWV 1006: VI. Bourrée
15. Violin Partita No. 3 in E Major, BWV 1006: VII. Gigue

Personnel:
Boris Begelman, violin

foobar2000 1.3.7 / Dynamic Range Meter 1.1.1
log date: 2017-11-03 10:45:55

––––––––––––––––––––––––––––––––––––––––
Analyzed: Boris Begelman / Bach: Sonatas and Partitas for Solo Violin
––––––––––––––––––––––––––––––––––––––––

DR Peak RMS Duration Track
––––––––––––––––––––––––––––––––––––––––
DR13 -0.38 dB -17.76 dB 3:34 01-Violin Sonata No. 1 in G Minor, BWV 1001: I. Adagio
DR13 -1.18 dB -19.90 dB 5:31 02-Violin Sonata No. 1 in G Minor, BWV 1001: II. Fuga. Allegro
DR14 -4.68 dB -22.16 dB 2:41 03-Violin Sonata No. 1 in G Minor, BWV 1001: III. Siciliana
DR13 -1.03 dB -18.40 dB 3:54 04-Violin Sonata No. 1 in G Minor, BWV 1001: IV. Presto
DR15 -1.03 dB -19.55 dB 5:49 05-Violin Partita No. 1 in B Minor, BWV 1002: I. Allemande
DR12 -3.06 dB -18.75 dB 3:05 06-Violin Partita No. 1 in B Minor, BWV 1002: II. Double
DR13 -1.75 dB -19.00 dB 3:29 07-Violin Partita No. 1 in B Minor, BWV 1002: III. Courante
DR15 -2.14 dB -21.16 dB 3:49 08-Violin Partita No. 1 in B Minor, BWV 1002: IV. Double. Presto
DR12 -1.51 dB -17.91 dB 3:37 09-Violin Partita No. 1 in B Minor, BWV 1002: V. Sarabande
DR12 -5.29 dB -21.48 dB 2:43 10-Violin Partita No. 1 in B Minor, BWV 1002: VI. Double
DR14 -0.80 dB -18.03 dB 3:32 11-Violin Partita No. 1 in B Minor, BWV 1002: VII. Tempo di Bourrée
DR13 -0.17 dB -17.50 dB 3:37 12-Violin Partita No. 1 in B Minor, BWV 1002: VIII. Double
DR13 -4.57 dB -22.31 dB 4:12 13-Violin Sonata No. 2 in A Minor, BWV 1003: I. Grave
DR15 -0.05 dB -18.93 dB 8:00 14-Violin Sonata No. 2 in A Minor, BWV 1003: II. Fuga.
DR15 -0.88 dB -21.19 dB 4:42 15-Violin Sonata No. 2 in A Minor, BWV 1003: III. Andante
DR13 -1.36 dB -18.82 dB 6:35 16-Violin Sonata No. 2 in A Minor, BWV 1003: IV. Allegro
DR12 -1.86 dB -17.83 dB 4:06 01-Violin Partita No. 2 in D Minor, BWV 1004: I. Allemanda
DR15 -2.81 dB -23.99 dB 2:41 02-Violin Partita No. 2 in D Minor, BWV 1004: II. Corrente
DR14 -4.28 dB -21.44 dB 3:26 03-Violin Partita No. 2 in D Minor, BWV 1004: III. Sarabanda
DR14 -5.05 dB -22.73 dB 4:18 04-Violin Partita No. 2 in D Minor, BWV 1004: IV. Giga
DR15 -0.78 dB -19.81 dB 11:11 05-Violin Partita No. 2 in D Minor, BWV 1004: V. Ciaccona
DR14 -2.74 dB -24.87 dB 4:56 06-Violin Sonata No. 3 in C Major, BWV 1005: I. Adagio
DR14 -2.37 dB -19.37 dB 10:36 07-Violin Sonata No. 3 in C Major, BWV 1005: II. Fuga
DR13 -5.97 dB -25.26 dB 3:28 08-Violin Sonata No. 3 in C Major, BWV 1005: III. Largo
DR13 -0.98 dB -20.40 dB 5:10 09-Violin Sonata No. 3 in C Major, BWV 1005: IV. Allegro assai
DR14 -0.33 dB -17.79 dB 3:36 10-Violin Partita No. 3 in E Major, BWV 1006: I. Preludio
DR13 -5.25 dB -22.15 dB 4:47 11-Violin Partita No. 3 in E Major, BWV 1006: II. Loure
DR14 -1.00 dB -20.49 dB 2:56 12-Violin Partita No. 3 in E Major, BWV 1006: III. Gavotte en Rondeaux
DR13 -2.16 dB -18.76 dB 4:50 13-Violin Partita No. 3 in E Major, BWV 1006: IV. Menuet 1-V. Menuet 2
DR12 -5.83 dB -21.35 dB 1:24 14-Violin Partita No. 3 in E Major, BWV 1006: VI. Bourrée
DR13 -3.55 dB -21.04 dB 1:43 15-Violin Partita No. 3 in E Major, BWV 1006: VII. Gigue
––––––––––––––––––––––––––––––––––––––––

Number of tracks: 31
Official DR value: DR13

Samplerate: 96000 Hz
Channels: 2
Bits per sample: 24
Bitrate: 2945 kbps
Codec: FLAC
================================================================================


Thanks to the Original customer.