Subcategories

Pierre Hantaï - Bach: Suites Anglaises No. 2 & 6, Concerto Italien (2014) [Official Digital Download 24/88]

Posted By: SERTiL
Pierre Hantaï - Bach: Suites Anglaises No. 2 & 6, Concerto Italien (2014) [Official Digital Download 24/88]

Pierre Hantaï - Bach: Suites Anglaises No. 2 & 6, Concerto Italien (2014)
FLAC (tracks) 24-bit/88.2 kHz | Time - 74:24 minutes | 1.45 GB
Studio Master, Official Digital Download | Artwork: Digital booklet

A new disc from Pierre Hantaï is always an event. This recording based around Johann Sebastian Bach, gives pride of place to the Italian Concerto, and makes us rediscover the masterpieces of the cantor of Leipzig in a unique interpretation from the star French harpsichordist. A must have addition to his discography which includes a number of recordings for Mirare: Bach s Well-Tempered Clavier (Book I), Goldberg Variations, and flute sonatas (with Hugo Reyne); three discs of sonatas by Domenico Scarlatti; a programme of works by François Couperin; and most recently a recording of music for two harpsichords by Rameau (with Skip Sempé).

IRR OUTSTANDING RECORDING 'a particularly intelligent model … I m not sure I ve ever encountered a Baroque suite performed with such confident mastery, vivid drama and attention to the finest detail … I am hard pressed to describe exactly how Hantai does what he does, but no less grateful to him for it' –Patrick Rucker International Record Review, January 2015

TRACKLIST

Johann Sebastian Bach (1685-1750)

Choral, BWV 691
01. Choral, BWV 691 "Wer nur den lieben Gott lässt walten“ (2:04)

Fantaisie en La Mineur, BWV 944
02. Fantaisie en La Mineur, BWV 944 (0:55)

Suite anglaise No. 2 en la mineur, BWV 807
03. I. Prélude (5:29)
04. II. Allemande (4:06)
05. III. Courante (2:05)
06. IV. Sarabande (3:54)
07. V. Bourrées 1 & 2 (4:29)
08. VI. Gigue (2:33)

Choral, BWV 690
09. Choral, BWV 690 "Wer nur den lieben Gott lässt walten“ (2:19)

Choral, BWV 728
10. Choral, BWV 728 "Jesus, meine Zuversicht“ (2:06)

Concerto italien en Fa Majeur, BWV 971
11. I. (4:23)
12. II. Andante (4:24)
13. III. Presto (4:05)

Choral, BWV 706
14. Choral, BWV 706 "Liebster Jesu, wir sind hier“ (1:27)

Suite anglaise No. 6 en Ré Mineur, BWV 811
15. I. Prélude (8:47)
16. II. Allemande (4:46)
17. III. Courante (2:26)
18. IV. Sarabande (3:10)
19. V. Double (2:56)
20. VI. Gavottes 1 & 2 (4:19)
21. VII. Gigue (3:51)

PERSONNEL
Pierre Hantaï, harpsichord

Recorded January and April 2014 in Haarlem, Holland

foobar2000 1.3.7 / Dynamic Range Meter 1.1.1
log date: 2017-04-27 12:33:02

––––––––––––––––––––––––––––––––––––––––
Analyzed: Pierre Hantaï / J.S. Bach: Suites Anglaises No. 2 & 6 - Concerto Italien
––––––––––––––––––––––––––––––––––––––––

DR Peak RMS Duration Track
––––––––––––––––––––––––––––––––––––––––
DR13 -5.98 dB -22.80 dB 2:04 01-Choral, BWV 691 "Wer nur den lieben Gott lässt walten“
DR11 -4.16 dB -18.61 dB 0:55 02-Fantaisie en La Mineur, BWV 944
DR13 -1.37 dB -16.82 dB 5:29 03-Suite anglaise No. 2 en la mineur, BWV 807: I. Prélude
DR13 -4.77 dB -21.13 dB 4:06 04-Suite anglaise No. 2 en la mineur, BWV 807: II. Allemande
DR12 -3.38 dB -17.45 dB 2:05 05-Suite anglaise No. 2 en la mineur, BWV 807: III. Courante
DR13 -5.80 dB -21.91 dB 3:54 06-Suite anglaise No. 2 en la mineur, BWV 807: IV. Sarabande
DR13 -3.32 dB -18.17 dB 4:29 07-Suite anglaise No. 2 en la mineur, BWV 807: V. Bourrées 1 & 2
DR12 -3.70 dB -17.17 dB 2:33 08-Suite anglaise No. 2 en la mineur, BWV 807: VI. Gigue
DR12 -6.98 dB -21.12 dB 2:19 09-Choral, BWV 690 "Wer nur den lieben Gott lässt walten“
DR13 -6.68 dB -22.57 dB 2:06 10-Choral, BWV 728 "Jesus, meine Zuversicht“
DR13 -0.15 dB -17.03 dB 4:23 11-Concerto italien en Fa Majeur, BWV 971: I.
DR12 -7.62 dB -22.21 dB 4:24 12-Concerto italien en Fa Majeur, BWV 971: II. Andante
DR14 -0.93 dB -17.05 dB 4:05 13-Concerto italien en Fa Majeur, BWV 971: III. Presto
DR12 -7.52 dB -22.64 dB 1:27 14-Choral, BWV 706 "Liebster Jesu, wir sind hier“
DR13 -1.07 dB -17.23 dB 8:47 15-Suite anglaise No. 6 en Ré Mineur, BWV 811: I. Prélude
DR12 -4.94 dB -20.58 dB 4:46 16-Suite anglaise No. 6 en Ré Mineur, BWV 811: II. Allemande
DR12 -2.97 dB -16.82 dB 2:26 17-Suite anglaise No. 6 en Ré Mineur, BWV 811: III. Courante
DR13 -2.71 dB -18.97 dB 3:10 18-Suite anglaise No. 6 en Ré Mineur, BWV 811: IV. Sarabande
DR12 -7.37 dB -22.35 dB 2:56 19-Suite anglaise No. 6 en Ré Mineur, BWV 811: V. Double
DR13 -3.89 dB -19.29 dB 4:19 20-Suite anglaise No. 6 en Ré Mineur, BWV 811: VI. Gavottes 1 & 2
DR12 -1.21 dB -16.16 dB 3:51 21-Suite anglaise No. 6 en Ré Mineur, BWV 811: VII. Gigue
––––––––––––––––––––––––––––––––––––––––

Number of tracks: 21
Official DR value: DR13

Samplerate: 88200 Hz
Channels: 2
Bits per sample: 24
Bitrate: 2899 kbps
Codec: FLAC
================================================================================


Thanks to the Original customer.