Subcategories

Herbert von Karajan, Philharmonia Orchestra - Balakirev: Symphony No. 1 (2014) [Official Digital Download 24/96]

Posted By: SERTiL
Herbert von Karajan, Philharmonia Orchestra - Balakirev: Symphony No. 1 (2014) [Official Digital Download 24/96]

Herbert von Karajan, Philharmonia Orchestra - Balakirev: Symphony No. 1 (2014)
FLAC (tracks) 24-bit/96 kHz | Time - 43:30minutes | 354 MB
Studio Master, Official Digital Download | Artwork: Front Cover

The Karajan Official Remastered Edition contains official remastering of the finest recordings the Austrian conductor made for EMI between 1946 and 1984, which are now a jewel of the Warner Classics catalog.

For many, Herbert von Karajan (1908-1989) hailed early in his career as Das Wunder Karajan (The Karajan Miracle) and known in the early 1960s as the music director of Europe remains the ultimate embodiment of the maestro. The release of the Karajan Official Remastered Edition over the first half of 2014 marks the 25th anniversary of the conductors death in July 1989 at the age of 81.

He was closely associated with EMI for the majority of his recording career (specifically from 1946 to 1960 and then again from 1969 to 1984). EMIs legendary producer Walter Legge sought him out in Vienna just after World War II and the long relationship that ensued embraced recordings with the Vienna Philharmonic, the Philharmonia (the orchestra founded by Legge), the Berlin Philharmonic (of which Karajan became conductor for life in 1955), La Scala, Milan, and the Orchestre de Paris.

TRACKLIST
01 Symphony No. 1 in C Major - I. Largo - Allegro vivo (14:52)
02 Symphony No. 1 in C Major - II. Scherzo (Vivo) (6:41)
03 Symphony No. 1 in C Major - III. Andante (13:21)
04 Symphony No. 1 in C Major - IV. Finale (Allegro moderato) (8:36)

foobar2000 1.3.7 / Dynamic Range Meter 1.1.1
log date: 2017-04-02 17:38:25

––––––––––––––––––––––––––––––––––––––––
Analyzed: Karajan/ Philharmonia Orchestra / Balakirev - Symphony No.1
––––––––––––––––––––––––––––––––––––––––

DR Peak RMS Duration Track
––––––––––––––––––––––––––––––––––––––––
DR13 -3.07 dB -20.94 dB 14:53 01-01 Symphony No. 1 in C Major - I. Largo - Allegro vivo
DR12 -4.28 dB -21.48 dB 6:41 02-02 Symphony No. 1 in C Major - II. Scherzo (Vivo)
DR13 -5.80 dB -24.47 dB 13:21 03-03 Symphony No. 1 in C Major - III. Andante
DR13 -5.64 dB -23.33 dB 8:36 04-04 Symphony No. 1 in C Major - IV. Finale (Allegro moderato)
––––––––––––––––––––––––––––––––––––––––

Number of tracks: 4
Official DR value: DR13

Samplerate: 96000 Hz
Channels: 2
Bits per sample: 24
Bitrate: 1113 kbps
Codec: FLAC
================================================================================


Thanks to the Original customer.